<?xml version="1.0" standalone="no"?>
<!DOCTYPE svg PUBLIC "-//W3C//DTD SVG 1.1//EN" "http://www.w3.org/Graphics/SVG/1.1/DTD/svg11.dtd" >
<svg xmlns="http://www.w3.org/2000/svg">
<metadata>Generated by IcoMoon</metadata>
<defs>
<font id="kendoui" horiz-adv-x="1024">
<font-face units-per-em="1024" ascent="960" descent="-64" />
<missing-glyph horiz-adv-x="1024" />
<glyph unicode="&#x20;" d="" horiz-adv-x="512" />
<glyph unicode="&#xe000;" d="M354.632 638.616v-492.052l425.558 246.026z" horiz-adv-x="1136" />
<glyph unicode="&#xe001;" d="M567.41 605.368l-246.026-425.558h492.052z" horiz-adv-x="1136" />
<glyph unicode="&#xe002;" d="M321.384 605.368l246.026-425.558 246.026 425.558h-492.052z" horiz-adv-x="1136" />
<glyph unicode="&#xe003;" d="M780.19 638.616l-425.558-246.026 425.558-246.026v492.052z" horiz-adv-x="1136" />
<glyph unicode="&#xe004;" d="M354.632 605.368l425.558-425.558v425.558h-425.558z" horiz-adv-x="1136" />
<glyph unicode="&#xe005;" d="M354.632 605.368v-425.558l425.558 425.558h-425.558z" horiz-adv-x="1136" />
<glyph unicode="&#xe006;" d="M780.19 605.368l-425.558-425.558h425.558v425.558z" horiz-adv-x="1136" />
<glyph unicode="&#xe007;" d="M354.632 605.368v-425.558h425.558z" horiz-adv-x="1136" />
<glyph unicode="&#xe008;" d="M780.19 676.294v-567.41h70.926v567.41h-70.926zM780.19 392.59l-425.558 246.026v-492.052z" horiz-adv-x="1136" />
<glyph unicode="&#xe009;" d="M283.706 605.368v-70.926h567.41v70.926h-567.41zM567.41 534.442l-246.026-425.558h492.052z" horiz-adv-x="1136" />
<glyph unicode="&#xe00a;" d="M321.384 676.294l246.026-425.558 246.026 425.558h-492.052zM567.41 250.736h-283.706v-70.926h567.41v70.926h-283.706z" horiz-adv-x="1136" />
<glyph unicode="&#xe00b;" d="M283.706 676.294v-567.41h70.926v567.41h-70.926zM354.632 392.59l425.558-246.026v492.052z" horiz-adv-x="1136" />
<glyph unicode="&#xe00c;" d="M496.486 605.368v-425.558l212.778 212.778z" horiz-adv-x="1136" />
<glyph unicode="&#xe00d;" d="M567.41 463.514l-212.778-212.778h425.558z" horiz-adv-x="1136" />
<glyph unicode="&#xe00e;" d="M354.632 534.442l212.78-212.778 212.778 212.778h-425.558z" horiz-adv-x="1136" />
<glyph unicode="&#xe00f;" d="M638.338 605.368l-212.778-212.778 212.778-212.778v425.558z" horiz-adv-x="1136" />
<glyph unicode="&#xe010;" d="M848.9 317.23l-269.298 269.298q-9.974 8.866-22.72 8.866t-21.61-8.866-8.866-21.61 8.866-21.61l250.46-250.46-250.46-250.46q-8.866-8.866-8.866-22.164t8.866-22.164 21.61-8.866 22.72 8.866l269.298 270.406q9.974 9.974 8.866 24.38 1.108 14.408-8.866 24.38z" horiz-adv-x="1136" />
<glyph unicode="&#xe011;" d="M986.32 179.81l-269.298 269.298q-11.082 9.974-25.49 8.866-14.408 1.108-24.38-8.866l-269.298-269.298q-8.866-8.866-8.866-22.164t8.866-22.164 21.61-8.866 22.718 8.866l249.352 250.46 250.46-250.46q8.866-8.866 22.164-8.866t22.164 8.866 8.866 22.164-8.866 22.164z" horiz-adv-x="1136" />
<glyph unicode="&#xe012;" d="M986.32 449.108q-8.866 8.866-22.164 8.866t-22.164-8.866l-250.458-250.46-249.35 250.46q-9.974 8.866-22.718 8.866t-21.61-8.866-8.866-21.61 8.866-21.61l269.298-270.408q9.974-9.974 24.38-8.866 14.408-1.108 25.49 8.866l269.298 270.406q8.866 8.866 8.866 21.61t-8.866 21.61z" horiz-adv-x="1136" />
<glyph unicode="&#xe013;" d="M598.442 292.848l250.46 250.46q8.866 8.866 8.866 21.61t-8.866 21.61-22.164 8.866-22.164-8.866l-269.298-269.298q-9.974-9.974-8.866-24.38-1.108-14.408 8.866-24.38l269.298-270.406q8.866-8.866 22.164-8.866t22.164 8.866 8.866 22.164-8.866 22.164z" horiz-adv-x="1136" />
<glyph unicode="&#xe014;" d="M454.926 686.822q-9.42 9.42-22.166 9.42t-21.61-9.974l-269.298-269.298q-11.082-9.974-9.974-24.38-1.108-14.408 9.974-24.38l269.298-269.298q8.866-9.974 21.61-9.974t22.166 9.42 9.42 22.164-9.974 21.61l-249.35 250.458 249.35 250.46q9.974 8.866 9.974 21.61t-9.42 22.166zM992.97 416.97l-269.298 269.298q-8.866 9.974-21.61 9.974t-22.164-9.42-9.42-22.166 9.974-21.61l249.35-250.46-249.35-250.46q-9.974-8.866-9.974-21.61t9.42-22.164 22.164-9.42 21.61 9.974l269.298 269.298q11.082 9.974 9.974 24.38 1.108 14.408-9.974 24.38z" horiz-adv-x="1136" />
<glyph unicode="&#xe015;" d="M564.086 828.12q-12.19-1.108-21.056-9.974l-269.298-269.298q-9.974-8.866-9.974-21.61t9.42-22.166 22.166-9.42 21.61 9.974l250.46 249.352 250.46-249.352q8.866-9.974 21.61-9.974t22.164 9.42 9.42 22.166-9.974 21.61l-269.298 269.298q-9.974 11.082-24.38 9.974h-3.326zM295.342 289.524q-12.746 0-22.166-9.42t-9.42-22.164 9.974-21.61l269.3-269.298q9.974-11.082 24.38-9.974 14.408-1.108 24.38 9.974l269.298 269.298q9.974 8.866 9.974 21.61t-9.42 22.164-22.164 9.42-21.61-9.974l-250.458-249.35-250.46 249.35q-8.866 9.974-21.61 9.974z" horiz-adv-x="1136" />
<glyph unicode="&#xe016;" d="M567.41 889.074l-195.048-211.67h124.12v-212.778h-212.778v124.12l-212.778-196.156 212.778-196.156v126.338h212.778v-214.996h-124.12l195.048-211.67 197.264 211.672h-126.338v214.996h214.996v-126.338l210.562 196.156-210.562 196.156v-124.12h-214.996v212.78h126.338z" horiz-adv-x="1136" />
<glyph unicode="&#xe017;" d="M141.854 818.146v-354.632l127.446 127.446 198.372-199.48-197.264-198.372-128.554 128.554v-354.632h354.632l-126.338 126.338 198.372 197.264 197.264-196.156-127.446-127.446h354.632v354.632l-127.446-127.446-196.156 197.264 197.264 198.372 126.338-126.338v354.632h-354.632l128.554-128.554-198.372-197.264-199.48 198.372 127.446 127.446h-354.632z" horiz-adv-x="1136" />
<glyph unicode="&#xe018;" d="M638.338 818.146l127.446-127.446-496.486-496.486-127.446 127.446v-354.632h354.632l-127.446 127.446 496.486 496.486 127.446-127.446v354.632h-354.632z" horiz-adv-x="1136" />
<glyph unicode="&#xe019;" d="M141.854 818.146v-354.632l127.446 127.446 496.486-496.486-127.446-127.446h354.632v354.632l-127.446-127.446-496.486 496.486 127.446 127.446h-354.632z" horiz-adv-x="1136" />
<glyph unicode="&#xe01a;" d="M283.706 588.746l-212.778-196.156 212.778-196.156v126.338h569.628v-126.338l210.562 196.156-210.562 196.156v-124.12h-569.628v124.12z" horiz-adv-x="1136" />
<glyph unicode="&#xe01b;" d="M567.41 889.074l-195.048-211.67h124.12v-569.628h-124.12l195.048-211.67 197.264 211.672h-126.338v569.628h126.338z" horiz-adv-x="1136" />
<glyph unicode="&#xe01c;" d="M496.486 941.16v-128.554q-118.58-16.624-216.104-85.332t-153.49-175.654-55.966-229.956q0-135.202 66.494-249.35t180.64-180.64 249.352-66.494 249.35 66.494 180.64 180.64 66.494 249.35q0 175.1-110.822 312.52l-115.254-67.602q94.198-104.174 94.198-244.918 0-98.632-48.762-182.856t-132.986-132.986-182.856-48.762-182.856 48.762-132.986 132.986-48.762 182.856q0 131.88 83.672 232.174t210.010 125.784v-128.554l338.010 195.048z" horiz-adv-x="1136" />
<glyph unicode="&#xe01d;" d="M638.338 941.16l-338.010-195.048 338.010-195.048v128.554q126.338-25.49 210.010-125.784t83.672-232.174q0-98.632-48.762-182.856t-132.986-132.986-182.856-48.762-182.856 48.762-132.986 132.986-48.762 182.856q0 140.746 94.198 244.918l-115.254 67.602q-110.822-137.42-110.822-312.52 0-135.202 66.494-249.35t180.64-180.642 249.35-66.494 249.35 66.494 180.64 180.64 66.494 249.35q0 123.014-55.966 229.956t-153.49 175.654-216.104 85.332v128.554z" horiz-adv-x="1136" />
<glyph unicode="&#xe01e;" d="M497.594 783.792v-116.364q-121.906-24.38-202.806-121.904t-80.9-224.97q0-146.286 103.618-249.904t249.906-103.62 249.904 103.62 103.62 249.904q0 121.904-74.25 217.212l-83.116-47.654q63.168-73.144 63.168-169.558 0-107.498-75.914-183.41t-183.412-75.914-183.412 75.914-75.914 183.412q0 88.658 53.194 157.922t136.312 92.538v-109.714l279.274 161.8z" horiz-adv-x="1136" />
<glyph unicode="&#xe01f;" d="M637.23 783.792l-279.274-160.694 279.274-161.8v109.714q83.116-23.272 136.312-92.536t53.196-157.922q0-107.498-75.914-183.41t-183.412-75.914-183.412 75.914-75.914 183.412q0 96.416 63.168 169.558l-83.118 47.654q-74.252-95.308-74.252-217.212 0-146.286 103.618-249.904t249.906-103.62 249.904 103.62 103.62 249.904q0 127.446-80.9 224.97t-202.806 121.904v116.364z" horiz-adv-x="1136" />
<glyph unicode="&#xe020;" d="M462.13 671.86l-160.692-279.274h116.364q24.38-121.904 121.904-202.806t224.97-80.9h86.442v94.198h-86.442q-88.658 0-157.922 53.196t-92.538 136.312h109.714z" horiz-adv-x="1136" />
<glyph unicode="&#xe021;" d="M764.674 676.294q-127.446 0-224.97-80.9t-121.904-202.806h-116.364l160.692-279.274 161.8 279.274h-109.714q23.274 83.118 92.538 136.312t157.922 53.196v0h86.442v94.198h-86.442z" horiz-adv-x="1136" />
<glyph unicode="&#xe022;" d="M283.706 676.294v-86.442q0-127.446 80.9-224.97t202.806-121.904v-116.364l279.274 160.692-279.274 161.8v-109.714q-83.118 23.274-136.312 92.538t-53.194 157.922v0 86.442h-94.2z" horiz-adv-x="1136" />
<glyph unicode="&#xe023;" d="M756.918 676.294v-86.442q0-88.658-53.196-157.922t-136.312-92.538v109.714l-279.274-161.8 279.274-160.692v116.364q121.904 24.38 202.804 121.904t80.9 224.97v86.442h-94.198z" horiz-adv-x="1136" />
<glyph unicode="&#xe024;" d="M567.41 658.562v-116.364q-121.904-24.38-202.806-121.904t-80.9-224.97v-86.442h94.2v86.442q0 88.658 53.194 157.922t136.312 92.538v-109.714l279.274 161.8z" horiz-adv-x="1136" />
<glyph unicode="&#xe025;" d="M567.41 658.562l-279.274-160.692 279.274-161.802v109.714q83.116-23.274 136.312-92.538t53.196-157.922v0-86.442h94.198v86.442q0 127.446-80.9 224.97t-202.804 121.904v116.364z" horiz-adv-x="1136" />
<glyph unicode="&#xe026;" d="M672.692 671.86l-161.8-279.274h109.714q-23.274-83.116-92.538-136.312t-157.922-53.196v0h-86.442v-94.198h86.442q127.446 0 224.97 80.9t121.904 202.806h116.364z" horiz-adv-x="1136" />
<glyph unicode="&#xe027;" d="M283.706 676.294v-94.198h86.442q88.658 0 157.922-53.196t92.538-136.312h-109.714l161.8-279.274 160.692 279.274h-116.364q-24.38 121.904-121.904 202.806t-224.97 80.9h-86.442z" horiz-adv-x="1136" />
<glyph unicode="&#xe028;" d="M568.52 854.72v-116.364q-121.904-24.382-202.806-121.904t-80.9-224.97q0-146.286 103.62-249.904t249.904-103.62q35.462 0 70.926 6.65v97.524q-34.356-9.974-70.926-9.974-107.498 0-183.412 75.914t-75.914 183.412q0 88.658 53.194 157.922t136.312 92.538v-109.714l279.274 161.8z" horiz-adv-x="1136" />
<glyph unicode="&#xe029;" d="M638.338 747.222q-146.286 0-249.904-103.62t-103.62-249.904q0-127.446 80.9-224.97t202.806-121.904v-116.364l279.274 160.692-279.274 161.8v-109.714q-83.118 23.274-136.312 92.538t-53.194 157.922q0 107.498 75.914 183.412t183.412 75.914q35.462 0 70.926-9.974v97.524q-35.462 6.65-70.926 6.65z" horiz-adv-x="1136" />
<glyph unicode="&#xe02a;" d="M265.974 672.97l-160.694-279.274h116.364q24.382-121.904 121.904-202.804t224.97-80.9q146.286 0 249.904 103.62t103.62 249.904q0 35.464-6.65 70.926h-97.524q9.974-34.354 9.974-70.926 0-107.498-75.914-183.412t-183.412-75.914q-88.658 0-157.922 53.196t-92.538 136.312h109.714z" horiz-adv-x="1136" />
<glyph unicode="&#xe02b;" d="M868.848 672.97l-161.8-279.274h109.714q-23.274-83.116-92.538-136.312t-157.922-53.196q-107.498 0-183.412 75.914t-75.914 183.412q0 35.464 9.974 70.926h-97.524q-6.65-35.464-6.65-70.926 0-146.286 103.62-249.906t249.904-103.62q127.446 0 224.97 80.9t121.904 202.806h116.364z" horiz-adv-x="1136" />
<glyph unicode="&#xe02c;" d="M568.52 675.186q-127.446 0-224.97-80.9t-121.906-202.804h-116.364l160.692-279.274 161.8 279.274h-109.714q23.274 83.118 92.538 136.312t157.922 53.196q107.498 0 183.412-75.914t75.914-183.412q0-35.462-9.974-70.926h97.524q6.65 35.462 6.65 70.926 0 146.286-103.62 249.904t-249.904 103.62z" horiz-adv-x="1136" />
<glyph unicode="&#xe02d;" d="M566.302 675.186q-146.286 0-249.904-103.618t-103.618-249.904q0-35.462 6.65-70.926h97.524q-9.974 35.462-9.974 70.926 0 107.498 75.914 183.412t183.412 75.914q88.658 0 157.922-53.196t92.538-136.312h-109.714l161.8-279.274 160.692 279.274h-116.364q-24.38 121.904-121.904 202.806t-224.97 80.9z" horiz-adv-x="1136" />
<glyph unicode="&#xe02e;" d="M566.302 854.72l-279.274-160.694 279.274-161.802v109.714q83.116-23.274 136.312-92.538t53.196-157.922q0-107.498-75.914-183.41t-183.412-75.914q-35.464 0-70.926 9.974v-97.524q35.464-6.65 70.926-6.65 146.286 0 249.906 103.62t103.62 249.904q0 127.446-80.9 224.97t-202.806 121.904v116.364z" horiz-adv-x="1136" />
<glyph unicode="&#xe02f;" d="M496.486 747.222q-35.464 0-70.926-6.65v-97.524q35.464 9.974 70.926 9.974 107.498 0 183.41-75.914t75.914-183.41q0-88.658-53.196-157.922t-136.312-92.538v109.714l-279.274-161.8 279.274-160.692v116.364q121.904 24.38 202.806 121.904t80.9 224.97q0 146.286-103.62 249.904t-249.904 103.62z" horiz-adv-x="1136" />
<glyph unicode="&#xe030;" d="M568.52 818.146q-176.208 0-301.438-125.228t-125.228-301.438 125.228-301.438 301.438-125.23 301.438 125.23 125.23 301.438-125.23 301.438-301.438 125.228zM791.274 594.286l86.442-86.442-381.228-381.228-237.16 239.376 86.442 86.442 150.718-152.934z" horiz-adv-x="1136" />
<glyph unicode="&#xe031;" d="M568.52 818.146q-176.208 0-301.438-125.228t-125.228-301.438 125.228-301.438 301.438-125.23 301.438 125.23 125.23 301.438-125.23 301.438-301.438 125.228zM394.528 643.048l173.99-175.1 173.99 175.1 77.576-77.576-175.1-173.99 175.1-173.99-77.576-77.576-173.99 175.1-173.99-175.1-77.576 77.576 175.1 173.99-175.1 173.99z" horiz-adv-x="1136" />
<glyph unicode="&#xe032;" d="M567.41 818.146q-176.208 0-300.882-124.674t-124.676-300.884 124.676-300.884 300.882-124.674 300.882 124.674 124.674 300.884-124.674 300.884-300.884 124.674zM496.486 676.294h141.852v-212.778h212.778v-141.852h-212.778v-212.778h-141.854v212.778h-212.778v141.854h212.778v212.78z" horiz-adv-x="1136" />
<glyph unicode="&#xe033;" d="M567.41 818.146q-176.208 0-300.882-124.674t-124.676-300.884 124.676-300.884 300.882-124.674 300.882 124.674 124.674 300.884-124.674 300.884-300.884 124.674zM283.706 463.514h567.41v-141.852h-567.41v141.854z" horiz-adv-x="1136" />
<glyph unicode="&#xe034;" d="M567.41 818.146q-176.208 0-300.882-124.674t-124.676-300.884 124.676-300.884 300.882-124.674 300.882 124.674 124.674 300.884-124.674 300.884-300.884 124.674zM496.486 605.368h141.852v-141.852h141.854v-141.852h-141.854v-141.854h-141.854v141.854h-141.854v141.854h141.854v141.854z" horiz-adv-x="1136" />
<glyph unicode="&#xe035;" d="M567.41 818.146q-176.208 0-300.882-124.674t-124.676-300.884 124.676-300.884 300.882-124.674 300.882 124.674 124.674 300.884-124.674 300.884-300.884 124.674zM354.632 463.514h425.558v-141.852h-425.558v141.854z" horiz-adv-x="1136" />
<glyph unicode="&#xe036;" d="M567.41 889.074q-135.202 0-249.35-66.494t-180.64-180.64-66.494-249.35 66.494-249.35 180.64-180.64 249.35-66.494 249.35 66.494 180.64 180.64 66.494 249.35-66.494 249.35-180.64 180.64-249.35 66.494zM567.41 746.114q146.286 0 249.904-103.62t103.62-249.904q0-104.174-56.52-190.616l-487.62 487.62q86.442 56.52 190.616 56.52zM270.406 583.202l487.62-487.62q-86.442-56.52-190.616-56.52-146.286 0-249.904 103.62t-103.618 249.904q0 104.174 56.518 190.616z" horiz-adv-x="1136" />
<glyph unicode="&#xe037;" d="M857.766 700.674l-370.146-521.974-275.948 213.886-29.922-132.986 321.384-243.81 434.424 569.628z" horiz-adv-x="1136" />
<glyph unicode="&#xe038;" d="M285.922 676.294l-2.216-2.216v-66.494l214.996-214.996-214.996-214.996v-66.494l2.216-2.216h70.926l212.778 212.778 212.778-212.778h68.71v73.144l-210.562 210.562 210.562 210.562v73.144h-68.71l-212.778-212.778-212.778 212.778h-70.926z" horiz-adv-x="1136" />
<glyph unicode="&#xe039;" d="M496.486 747.222v-283.706h-283.706v-141.852h283.706v-283.706h141.852v283.706h283.706v141.854h-283.706v283.706h-141.854z" horiz-adv-x="1136" />
<glyph unicode="&#xe03a;" d="M212.778 463.514v-141.852h709.264v141.854h-709.264z" horiz-adv-x="1136" />
<glyph unicode="&#xe03b;" d="M496.486 605.368v-141.852h-141.854v-141.852h141.854v-141.854h141.852v141.854h141.854v141.854h-141.854v141.854h-141.854z" horiz-adv-x="1136" />
<glyph unicode="&#xe03c;" d="M354.632 463.514v-141.852h425.558v141.854h-425.558z" horiz-adv-x="1136" />
<glyph unicode="&#xe03d;" d="M354.632 676.294q-29.922 0-50.424-20.502t-20.502-50.424v-425.558q0-29.922 20.502-50.424t50.424-20.502h425.558q29.922 0 50.424 20.502t20.502 50.424v425.558q0 29.922-20.502 50.424t-50.424 20.502h-425.558z" horiz-adv-x="1136" />
<glyph unicode="&#xe03e;" d="M354.632 676.294v-567.41h141.854v567.41h-141.854zM638.338 676.294v-567.41h141.854v567.41h-141.854z" horiz-adv-x="1136" />
<glyph unicode="&#xe03f;" d="M567.41 676.294l-246.026-425.558h492.052zM319.168 108.884q-14.406 0-24.936-10.528t-10.528-24.934 10.528-24.934 24.936-10.528h496.486q14.408 0 24.934 10.528t10.528 24.934-10.528 24.934-24.934 10.528h-496.486z" horiz-adv-x="1136" />
<glyph unicode="&#xe040;" d="M766.892 747.222l-212.778-212.778h-128.554q-29.922 0-50.424-20.502t-20.502-50.424v-141.854q0-29.922 20.502-50.424t50.424-20.502h128.554l212.778-212.778h84.226v709.264h-84.226z" horiz-adv-x="1136" />
<glyph unicode="&#xe041;" d="M851.116 463.514q-29.922 0-50.424-20.502t-20.502-50.424 20.502-50.424 50.424-20.502 50.424 20.502 20.502 50.424-20.502 50.424-50.424 20.502zM412.26 534.442h-128.554q-29.922 0-50.424-20.502t-20.502-50.424v-141.854q0-29.922 20.502-50.424t50.424-20.502h128.554l212.778-212.778h84.226v709.264h-84.226z" horiz-adv-x="1136" />
<glyph unicode="&#xe042;" d="M780.19 676.294v-75.36q75.36-13.298 125.784-72.034t50.424-136.866-50.424-137.42-125.784-71.48v-74.25q117.472 0 200.588 83.116t83.116 200.588-83.116 200.588-200.588 83.118zM851.116 392.59q0 29.922-20.502 50.424t-50.424 20.502-50.424-20.502-20.502-50.424 20.502-50.424 50.424-20.502 50.424 20.502 20.502 50.424zM341.334 534.442h-128.554q-29.922 0-50.424-20.502t-20.502-50.424v-141.854q0-29.922 20.502-50.424t50.424-20.502h128.554l212.78-212.778h84.226v709.264h-84.226z" horiz-adv-x="1136" />
<glyph unicode="&#xe043;" d="M567.41 889.074q-135.202 0-249.35-66.494t-180.64-180.64-66.494-249.35q0-99.74 37.126-189.506t104.728-157.368v-149.61q0-29.922 20.502-50.424t50.424-20.502h70.926q29.922 0 50.424 20.502t20.502 50.424v354.632q0 29.922-20.502 50.424t-50.424 20.502h-70.926q-29.922 0-50.424-20.502t-20.502-50.424v-12.19q-32.14 73.144-32.14 154.044 0 160.692 113.040 273.732t273.732 113.038 273.732-113.038 113.038-273.732q0-80.9-32.14-154.044v12.19q0 29.922-20.502 50.424t-50.424 20.502h-70.926q-29.922 0-50.424-20.502t-20.502-50.424v-354.632q0-29.922 20.502-50.424t50.424-20.502h70.926q29.922 0 50.424 20.502t20.502 50.424v149.61q67.602 67.602 104.726 157.368t37.126 189.506q0 135.202-66.494 249.35t-180.64 180.64-249.35 66.494z" horiz-adv-x="1136" />
<glyph unicode="&#xe044;" d="M353.524 747.222q-86.442 0-148.502-70.926t-63.168-192.832q0-38.788 12.19-73.698t28.814-58.736 47.1-49.87 50.978-39.342 57.628-36.018 52.642-32.692q67.602-44.328 117.472-100.294t58.736-86.996q7.758 28.814 59.844 86.442t116.364 103.064q17.732 12.19 52.086 33.802t57.628 36.018 52.086 39.342 45.99 48.762 29.368 58.736 12.19 73.698q0 72.034-24.934 128t-63.168 86.442-86.442 39.896-94.754-3.878-88.658-52.086-67.602-98.632q-34.356 79.792-91.984 120.798t-121.906 41.004z" horiz-adv-x="1136" />
<glyph unicode="&#xe045;" d="M353.524 747.222q-86.442 0-148.502-70.926t-63.168-192.832q0-38.788 12.19-73.698t28.814-58.736 47.1-49.87 50.978-39.342 57.628-36.018 52.642-32.692q67.602-44.328 117.472-100.294t58.736-86.996q7.758 28.814 59.844 86.442t116.364 103.064q17.732 12.19 52.086 33.802t57.628 36.018 52.086 39.342 45.99 48.762 29.368 58.736 12.19 73.698q0 72.034-24.934 128t-63.168 86.442-86.442 39.896-94.754-3.878-88.658-52.086-67.602-98.632q-34.356 79.792-91.984 120.798t-121.906 41.004zM363.498 614.234q57.628 0 114.7-43.774t89.212-118.026q16.624 38.788 43.222 71.48t56.52 52.086 61.506 29.922 60.398 6.096 52.086-20.502 37.126-50.424 13.852-80.9q0-36.572-11.082-65.938t-34.908-52.64-43.222-37.68-53.196-35.462-47.1-31.030q-49.87-34.356-89.766-78.13t-45.438-65.938q-6.65 24.38-44.884 67.048t-90.32 75.914q-11.082 7.758-39.342 24.934t-44.33 27.706-39.342 29.922-35.464 37.68-21.61 44.884-9.42 56.52q0 77.576 34.354 117.472t86.442 38.788z" horiz-adv-x="1136" />
<glyph unicode="&#xe046;" d="M353.524 747.222q-86.442 0-148.502-70.926t-63.168-192.832q0-38.788 12.19-73.698t28.814-58.736 47.1-49.87 50.978-39.342 57.628-36.018 52.642-32.692q67.602-44.328 117.472-100.294t58.736-86.996q7.758 28.814 59.844 86.442t116.364 103.064q17.732 12.19 52.086 33.802t57.628 36.018 52.086 39.342 45.99 48.762 29.368 58.736 12.19 73.698q0 72.034-24.934 128t-63.168 86.442-86.442 39.896-94.754-3.878-88.658-52.086-67.602-98.632q-34.356 79.792-91.984 120.798t-121.906 41.004zM772.432 613.126q52.086 0 85.886-38.234t33.802-114.702q0-36.572-11.082-65.938t-34.908-52.64-43.222-37.68-53.196-35.462-47.1-31.030q-49.87-34.356-89.766-78.13t-45.438-65.938v359.064q31.030 72.036 89.212 116.364t115.81 44.328z" horiz-adv-x="1136" />
<glyph unicode="&#xe047;" d="M567.41 960l-161.8-344.658-377.904-47.654 278.166-260.432-72.034-373.472 333.576 183.966 333.576-183.966-72.034 373.472 278.166 260.432-377.904 47.654z" horiz-adv-x="1136" />
<glyph unicode="&#xe048;" d="M567.41 960l-161.8-344.658-377.904-47.654 278.166-260.432-72.034-373.472 333.576 183.966 333.576-183.966-72.034 373.472 278.166 260.432-377.904 47.654zM567.41 746.114l98.632-209.456 230.51-28.814-169.558-159.584 43.222-228.294-202.806 113.038-202.806-113.038 43.222 228.294-169.558 159.584 230.512 28.814z" horiz-adv-x="1136" />
<glyph unicode="&#xe049;" d="M567.41 960l-161.8-344.658-377.904-47.654 278.166-260.432-72.034-373.472 333.576 182.856v843.36z" horiz-adv-x="1136" />
<glyph unicode="&#xe04a;" d="M567.41 960l-161.8-344.658-377.904-47.654 278.166-260.432-72.034-373.472 333.576 182.856v115.254l-203.914-111.932 44.33 228.294-169.558 158.476 230.512 29.922 98.632 209.456v213.886z" horiz-adv-x="1136" />
<glyph unicode="&#xe04b;" d="M922.044 747.222q-29.922 0-50.424-20.502t-20.502-50.424v-567.412q0-29.922 20.502-50.424t50.424-20.502 50.424 20.502 20.502 50.424v567.41q0 29.922-20.502 50.424t-50.424 20.502zM709.264 534.442q-29.922 0-50.424-20.502t-20.502-50.424v-354.632q0-29.922 20.502-50.424t50.424-20.502 50.424 20.502 20.502 50.424v354.632q0 29.922-20.502 50.424t-50.424 20.502zM283.706 463.514q-29.922 0-50.424-20.502t-20.502-50.424v-283.706q0-29.922 20.502-50.424t50.424-20.502 50.424 20.502 20.502 50.424v283.706q0 29.922-20.502 50.424t-50.424 20.502zM496.486 321.662q-29.922 0-50.424-20.502t-20.502-50.424v-141.854q0-29.922 20.502-50.424t50.424-20.502 50.424 20.502 20.502 50.424v141.854q0 29.922-20.502 50.424t-50.424 20.502z" horiz-adv-x="1136" />
<glyph unicode="&#xe04c;" d="M283.706 747.222q-29.922 0-50.424-20.502t-20.502-49.87 20.502-50.424 50.424-21.056h567.41q29.922 0 50.424 21.056t20.502 50.424-20.502 49.87-50.424 20.502h-567.41zM283.706 534.442q-29.922 0-50.424-20.502t-20.502-49.87 20.502-50.424 50.424-21.056h354.632q29.922 0 50.424 21.056t20.502 50.424-20.502 49.87-50.424 20.502h-354.632zM283.706 321.662q-29.922 0-50.424-20.502t-20.502-49.87 20.502-50.424 50.424-21.056h141.854q29.922 0 50.424 21.056t20.502 50.424-20.502 49.87-50.424 20.502h-141.854zM283.706 108.884q-29.922 0-50.424-20.502t-20.502-49.87 20.502-50.424 50.424-21.056h283.706q29.922 0 50.424 21.056t20.502 50.424-20.502 49.87-50.424 20.502h-283.706z" horiz-adv-x="1136" />
<glyph unicode="&#xe04d;" d="M769.108 855.826l-110.822-392.312 387.88 116.364q-15.516 36.572-38.234 74.804t-57.074 80.346-81.456 74.806-100.294 45.99zM567.41 820.364q-177.316 0-302.546-125.23t-125.228-302.546q0-69.818 22.164-136.312l343.55 146.286 99.74 415.584q-19.948 2.216-37.68 2.216zM994.078 414.754l-397.854-80.9-392.312-167.342q57.628-93.092 154.044-147.394t209.456-54.302q177.316 0 302.544 125.23t125.23 302.546q0 9.974-1.108 22.164z" horiz-adv-x="1136" />
<glyph unicode="&#xe04e;" d="M769.108 855.826l-49.87-176.208q53.196-17.732 92.538-58.736t54.856-95.308l179.532 54.302q-15.516 36.572-38.234 74.804t-57.074 80.346-81.456 74.806-100.294 45.99zM567.41 820.364q-177.316 0-302.546-125.23t-125.228-302.546q0-69.818 22.164-136.312l179.532 76.468q-7.758 29.922-7.758 59.844 0 94.2 65.384 162.356t159.584 71.48l46.544 191.722q-19.948 2.216-37.68 2.216zM994.078 414.754l-193.938-38.788q-5.542-91.984-73.144-154.596t-159.584-62.616q-53.196 0-100.848 22.72t-79.792 62.616l-182.856-77.576q57.628-93.092 154.044-147.394t209.456-54.302q177.316 0 302.544 125.23t125.23 302.546q0 9.974-1.108 22.164z" horiz-adv-x="1136" />
<glyph unicode="&#xe04f;" d="M425.558 676.294q-29.922 0-50.424-20.502t-20.502-50.424q0-8.866 2.216-18.84l-178.424-132.986q-16.622 9.974-36.57 9.974-29.922 0-50.424-20.502t-20.502-50.424 20.502-50.424 50.424-20.502 50.424 20.502 20.502 50.424q0 8.866-2.216 17.732l178.424 134.096q16.622-9.974 36.57-9.974 5.54 0 11.082 1.108l212.778-318.062q-11.082-17.732-11.082-37.68 0-29.922 20.502-50.424t50.424-20.502 50.424 20.502 20.502 50.424q0 17.732-7.758 33.246l201.698 252.676q9.974-2.216 18.84-2.216 29.922 0 50.424 20.502t20.502 50.424-20.502 50.424-50.424 20.502-50.424-20.502-20.502-50.424q0-17.732 7.758-33.248l-202.806-252.676q-8.866 2.216-17.732 2.216-7.758 0-14.408-1.108l-210.562 315.844q12.19 17.732 12.19 39.896 0 29.922-20.502 50.424t-50.424 20.502z" horiz-adv-x="1136" />
<glyph unicode="&#xe050;" d="M705.938 150.996l-341.334 424.45-294.788-273.732 1.108-263.758q0-29.922 20.502-50.424t50.424-20.502h851.116q29.922 0 50.424 20.502t20.502 50.424v496.486zM366.822 810.39l-313.628-313.628 49.87-49.87 259.324 258.216 344.658-428.882h1.108l353.524 377.904-52.086 48.762-298.114-320.276z" horiz-adv-x="1136" />
<glyph unicode="&#xe051;" d="M496.486 605.368q29.922 0 50.424 20.502t20.502 50.424-20.502 50.424-50.424 20.502-50.424-20.502-20.502-50.424 20.502-50.424 50.424-20.502zM283.706 392.59q29.922 0 50.424 20.502t20.502 50.424-20.502 50.424-50.424 20.502-50.424-20.502-20.502-50.424 20.502-50.424 50.424-20.502zM1028.432 37.956h-886.58v744.726q0 14.408-10.528 24.934t-24.936 10.528-24.936-10.528-10.528-24.934v-780.19q0-14.408 10.528-24.934t24.936-10.528h922.044q14.406 0 24.934 10.528t10.528 24.934-10.528 24.934-24.934 10.528zM709.264 250.736q29.922 0 50.424 20.502t20.502 50.424-20.502 50.424-50.424 20.502-50.424-20.502-20.502-50.424 20.502-50.424 50.424-20.502zM922.044 534.442q29.922 0 50.424 20.502t20.502 50.424-20.502 50.424-50.424 20.502-50.424-20.502-20.502-50.424 20.502-50.424 50.424-20.502z" horiz-adv-x="1136" />
<glyph unicode="&#xe052;" d="M177.316 747.222q-14.408 0-24.936-10.528t-10.528-24.934 10.528-24.934 24.936-10.528h780.19q14.408 0 24.934 10.528t10.528 24.934-10.528 24.934-24.934 10.528h-780.19zM177.316 605.368q-14.408 0-24.936-10.528t-10.528-24.934 10.528-24.934 24.936-10.528h567.41q14.408 0 24.934 10.528t10.528 24.934-10.528 24.934-24.934 10.528h-567.41zM177.316 463.514q-14.408 0-24.936-10.528t-10.528-24.934 10.528-24.934 24.936-10.528h780.19q14.408 0 24.934 10.528t10.528 24.934-10.528 24.936-24.934 10.528h-780.19zM177.316 321.662q-14.408 0-24.936-10.528t-10.528-24.934 10.528-24.934 24.936-10.528h567.41q14.408 0 24.934 10.528t10.528 24.934-10.528 24.934-24.934 10.528h-567.41zM177.316 179.81q-14.408 0-24.936-10.528t-10.528-24.934 10.528-24.934 24.936-10.528h780.19q14.408 0 24.934 10.528t10.528 24.934-10.528 24.934-24.934 10.528h-780.19zM177.316 37.956q-14.408 0-24.936-10.528t-10.528-24.934 10.528-24.934 24.936-10.528h567.41q14.408 0 24.934 10.528t10.528 24.934-10.528 24.934-24.934 10.528h-567.41z" horiz-adv-x="1136" />
<glyph unicode="&#xe053;" d="M957.506 676.294h-780.19q-14.408 0-24.936 10.528t-10.528 24.936 10.528 24.934 24.936 10.528h780.19q14.408 0 24.934-10.528t10.528-24.934-10.528-24.936-24.934-10.528zM815.654 534.442h-496.486q-14.406 0-24.936 10.528t-10.528 24.934 10.528 24.936 24.936 10.528h496.486q14.408 0 24.934-10.528t10.528-24.936-10.528-24.934-24.934-10.528zM957.506 392.59h-780.19q-14.408 0-24.936 10.528t-10.528 24.934 10.528 24.936 24.936 10.528h780.19q14.408 0 24.934-10.528t10.528-24.936-10.528-24.934-24.934-10.528zM815.654 250.736h-496.486q-14.406 0-24.936 10.528t-10.528 24.934 10.528 24.934 24.936 10.528h496.486q14.408 0 24.934-10.528t10.528-24.934-10.528-24.934-24.934-10.528zM957.506 108.884h-780.19q-14.408 0-24.936 10.528t-10.528 24.934 10.528 24.934 24.936 10.528h780.19q14.408 0 24.934-10.528t10.528-24.934-10.528-24.934-24.934-10.528zM815.654-32.97h-496.486q-14.406 0-24.936 10.528t-10.528 24.934 10.528 24.934 24.936 10.528h496.486q14.408 0 24.934-10.528t10.528-24.934-10.528-24.934-24.934-10.528z" horiz-adv-x="1136" />
<glyph unicode="&#xe054;" d="M177.316 747.222q-14.408 0-24.936-10.528t-10.528-24.934 10.528-24.934 24.936-10.528h780.19q14.408 0 24.934 10.528t10.528 24.934-10.528 24.934-24.934 10.528h-780.19zM390.096 605.368q-14.406 0-24.936-10.528t-10.528-24.934 10.528-24.934 24.936-10.528h567.41q14.408 0 24.934 10.528t10.528 24.934-10.528 24.934-24.934 10.528h-567.41zM177.316 463.514q-14.408 0-24.936-10.528t-10.528-24.934 10.528-24.934 24.936-10.528h780.19q14.408 0 24.934 10.528t10.528 24.934-10.528 24.936-24.934 10.528h-780.19zM390.096 321.662q-14.406 0-24.936-10.528t-10.528-24.934 10.528-24.934 24.936-10.528h567.41q14.408 0 24.934 10.528t10.528 24.934-10.528 24.934-24.934 10.528h-567.41zM177.316 179.81q-14.408 0-24.936-10.528t-10.528-24.934 10.528-24.934 24.936-10.528h780.19q14.408 0 24.934 10.528t10.528 24.934-10.528 24.934-24.934 10.528h-780.19zM390.096 37.956q-14.406 0-24.936-10.528t-10.528-24.934 10.528-24.934 24.936-10.528h567.41q14.408 0 24.934 10.528t10.528 24.934-10.528 24.934-24.934 10.528h-567.41z" horiz-adv-x="1136" />
<glyph unicode="&#xe055;" d="M177.316 747.222q-14.408 0-24.936-10.528t-10.528-24.934 10.528-24.934 24.936-10.528h780.19q14.408 0 24.934 10.528t10.528 24.934-10.528 24.934-24.934 10.528h-780.19zM177.316 605.368q-14.408 0-24.936-10.528t-10.528-24.934 10.528-24.934 24.936-10.528h780.19q14.408 0 24.934 10.528t10.528 24.934-10.528 24.934-24.934 10.528h-780.19zM177.316 463.514q-14.408 0-24.936-10.528t-10.528-24.934 10.528-24.934 24.936-10.528h780.19q14.408 0 24.934 10.528t10.528 24.934-10.528 24.936-24.934 10.528h-780.19zM177.316 321.662q-14.408 0-24.936-10.528t-10.528-24.934 10.528-24.934 24.936-10.528h780.19q14.408 0 24.934 10.528t10.528 24.934-10.528 24.934-24.934 10.528h-780.19zM177.316 179.81q-14.408 0-24.936-10.528t-10.528-24.934 10.528-24.934 24.936-10.528h780.19q14.408 0 24.934 10.528t10.528 24.934-10.528 24.934-24.934 10.528h-780.19zM177.316 37.956q-14.408 0-24.936-10.528t-10.528-24.934 10.528-24.934 24.936-10.528h780.19q14.408 0 24.934 10.528t10.528 24.934-10.528 24.934-24.934 10.528h-780.19z" horiz-adv-x="1136" />
<glyph unicode="&#xe056;" d="M955.29 179.81q14.408 0 24.934-10.528t10.528-24.934-10.528-24.934-24.934-10.528h-65.384l72.034-72.034q23.274-4.432 27.706-27.706l93.090-91.982-74.25-74.25-922.044 922.044 74.252 74.25 90.874-91.982h703.722q14.408 0 24.934-10.528t10.528-24.936-10.528-24.934-24.934-10.528h-632.798l70.926-70.926h561.87q14.408 0 24.934-10.528t10.528-24.936-10.528-24.936-24.934-10.528h-490.944l70.926-70.926h420.018q14.408 0 24.934-10.528t10.528-24.934-10.528-24.934-24.934-10.528h-349.092l70.926-70.926h278.164q14.408 0 24.934-10.528t10.528-24.934-10.528-24.934-24.934-10.528h-207.238l70.926-70.926h136.312zM160.694 602.044l67.602-67.602h-53.194q-14.408 0-24.936 10.528t-10.528 24.934q0 23.274 21.056 32.14zM175.1 463.514h124.122l70.926-70.926h-195.048q-14.408 0-24.936 10.528t-10.528 24.934 10.528 24.936 24.936 10.528zM175.1 321.662h265.974l70.926-70.926h-336.9q-14.408 0-24.936 10.528t-10.528 24.934 10.528 24.934 24.936 10.528zM175.1 179.81h407.826l70.926-70.926h-478.752q-14.408 0-24.936 10.528t-10.528 24.934 10.528 24.934 24.936 10.528zM175.1 37.956h549.68l70.926-70.926h-620.606q-14.408 0-24.936 10.528t-10.528 24.934 10.528 24.934 24.936 10.528z" horiz-adv-x="1136" />
<glyph unicode="&#xe057;" d="M667.152 413.644q100.848-23.274 141.854-56.52 57.628-47.654 57.628-124.12 0-79.792-64.278-131.88-78.684-63.168-229.404-63.168h-360.174v18.84q48.762 0 66.494 9.974 17.732 8.866 24.936 23.274t7.202 72.034v461.022q0 57.628-7.202 72.034t-24.936 23.274-66.494 8.866v19.948h340.226q121.904 0 172.328-21.61t79.792-64.83 29.368-91.984q0-50.978-36.572-90.874-37.68-39.896-130.77-64.278zM476.536 387.048v-227.186l-1.108-26.596q0-27.706 14.406-42.112t43.22-14.408q41.004 0 76.468 18.84 36.572 18.84 54.302 53.196 18.84 35.462 18.84 78.684 0 49.87-22.164 89.766-23.274 38.788-64.278 55.412-39.896 15.514-119.688 14.408zM476.536 428.052q74.252 0 109.714 16.624t54.302 47.1 18.84 77.576-18.84 77.022-53.196 45.438q-34.356 16.622-110.822 15.514v-279.272z" horiz-adv-x="1136" />
<glyph unicode="&#xe058;" d="M283.706 747.222h283.706q84.226 0 125.23-6.65 41.004-7.758 74.25-29.922 32.14-22.164 54.302-59.29t22.164-82.562q0-49.87-27.706-91.984-26.596-41.004-72.034-62.060 64.278-18.84 99.186-64.278t34.908-106.39q0-48.762-22.164-94.198-22.164-46.544-61.506-73.698t-95.86-33.802q-34.356-3.326-172.884-4.432h-241.592v709.264zM426.666 628.642v-164.018h94.2q84.226 0 104.174 3.324 36.572 4.432 57.628 25.488t21.056 55.41q0 32.14-18.286 52.642t-53.75 24.934q-21.056 2.216-123.014 2.216h-82.010zM426.666 347.152v-189.506h132.988q77.576 0 98.632 4.432 31.030 5.542 51.532 28.26t20.502 60.398q0 31.030-15.514 53.75t-45.438 32.692q-28.814 9.974-126.338 9.974h-116.364z" horiz-adv-x="1136" />
<glyph unicode="&#xe059;" d="M469.888 728.38l5.54 18.84h345.766l-6.65-18.84q-46.544 0-72.034-21.056-24.38-21.056-43.222-87.55l-129.662-454.372q-14.408-47.654-14.408-64.278 0-18.84 14.408-28.814 18.84-14.408 70.926-15.514l-4.432-18.84h-352.416l5.54 18.84q53.194 0 77.576 20.502t44.33 88.104l130.772 454.372q12.19 42.112 12.19 63.168 0 18.84-14.408 29.922t-69.818 15.516z" horiz-adv-x="1136" />
<glyph unicode="&#xe05a;" d="M562.978 747.222l-148.502-709.264h146.286l148.502 709.264h-146.286z" horiz-adv-x="1136" />
<glyph unicode="&#xe05b;" d="M212.778-103.896v70.926h709.264v-70.926h-709.264zM213.888 747.222h357.958v-18.84h-17.732q-41.004 0-55.966-8.312t-21.056-23.272-6.096-74.806v-339.116q0-93.092 13.854-123.014t45.99-49.87 82.010-19.948q55.41 0 95.308 25.49 39.896 24.38 59.29 69.264t19.394 154.596v282.596q0 46.546-8.866 66.494-9.974 19.948-25.49 27.706-22.164 12.19-64.278 12.19v18.84h239.378v-18.84h-14.408q-28.814 0-48.208-11.636t-28.26-36.016q-6.65-16.624-6.65-58.736v-262.648q0-123.014-16.624-176.208-15.514-54.302-78.13-99.74t-170.114-45.438q-89.766 0-138.528 23.274-67.602 33.246-95.308 84.226t-27.706 137.42v339.118q0 59.844-6.65 74.804t-22.718 23.274-60.398 8.312v18.84z" horiz-adv-x="1136" />
<glyph unicode="&#xe05c;" d="M283.706-103.896v70.926h567.41v-70.926h-567.41zM282.596 747.222h140.746v-376.798q0-89.766 4.432-116.364 8.866-43.222 43.222-68.71t93.092-25.49q59.844 0 90.32 24.38t36.572 59.844 6.096 118.58v384.554h140.746v-365.714q0-125.23-12.19-177.316-11.082-52.086-42.114-87.55-29.922-35.462-82.010-56.52-50.978-21.056-132.986-21.056-99.74 0-151.826 23.274-50.978 23.274-80.9 59.844t-39.896 77.576q-13.298 59.844-13.298 176.208v371.254z" horiz-adv-x="1136" />
<glyph unicode="&#xe05d;" d="M70.926 332.746v34.356h992.97v-34.356h-992.97zM1040.624 310.58q-13.298-63.168-50.978-96.97t-83.116-33.802q-54.302 0-95.308 45.99t-39.896 123.568q0 75.36 44.328 122.46t107.498 47.1q47.654 0 78.13-24.934t30.476-51.532q0-13.298-8.866-21.61t-24.38-8.312q-19.948 0-31.030 13.298-5.542 7.758-7.758 28.26t-14.408 31.584q-12.19 9.974-33.246 9.974-35.462 0-56.52-25.488-27.706-34.354-27.706-90.874 0-57.628 27.706-101.404t75.36-43.774q34.356 0 62.062 23.274 18.84 16.624 37.68 58.736zM498.702 454.65q46.544 64.276 99.74 64.276 49.87 0 86.442-42.112t36.572-115.254q0-85.332-56.52-137.42-48.762-44.328-108.606-44.328-27.706 0-56.52 9.974t-58.736 31.030v331.358q0 54.304-2.216 66.494-3.324 13.298-8.866 17.732t-13.298 4.432q-9.974 0-25.488-5.542l-4.432 12.19 96.416 38.788h15.514v-231.62zM498.702 432.486v-191.724q17.732-17.732 36.572-26.596t38.788-8.866q32.14 0 59.844 34.908t27.706 101.404q0 62.062-27.706 94.754t-63.168 32.692q-17.732 0-36.572-8.866-14.408-6.65-35.464-27.706zM274.84 235.222q-48.762-37.68-62.062-43.222-18.84-8.866-39.896-8.866-33.248 0-54.856 22.72t-21.61 59.29q0 23.274 9.974 41.004 14.406 23.274 49.87 44.328t118.58 50.978v13.298q0 47.654-15.514 65.384t-44.33 17.732q-22.164 0-34.354-12.19-13.3-12.19-13.3-26.596v-21.056q0-15.514-7.758-24.38t-21.056-8.866-21.61 8.866-8.312 25.49q0 29.922 31.030 54.856t86.442 24.934q42.112 0 69.818-14.406 19.948-11.082 29.922-33.248 6.65-15.514 6.65-62.060v-108.606q0-45.438 1.108-55.412 2.216-11.082 6.096-14.408t9.42-3.326 9.974 2.216q6.65 4.432 27.706 25.49v-19.948q-38.788-52.086-74.252-52.086-17.732 0-27.706 12.19t-9.974 39.896zM274.84 258.494v121.904q-53.194-21.056-68.71-29.922-27.706-15.514-39.342-32.14t-11.636-36.572q0-25.49 14.962-42.112t34.908-16.624q26.598 0 69.818 35.462z" horiz-adv-x="1136" />
<glyph unicode="&#xe05e;" d="M70.926 323.88v45.438h992.97v-45.438h-992.97zM1005.16 303.932l53.196-6.65q-8.866-55.41-44.884-86.442t-88.104-31.030q-65.384 0-105.28 42.668t-39.896 123.568q0 50.978 17.178 89.766t51.532 58.736q35.462 18.84 76.468 18.84 52.086 0 85.332-26.042t42.114-74.806l-52.086-7.758q-7.758 32.14-26.596 48.208t-46.544 16.070q-41.004 0-66.494-29.368t-25.49-92.538q0-64.278 24.934-93.644t63.722-29.368q32.14 0 53.75 19.394t27.152 60.398zM504.242 186.458h-50.978v441.074h54.302v-157.368q34.356 43.222 87.55 43.222 29.922 0 55.966-11.636t43.222-33.248 26.596-52.086 9.42-64.832q0-82.010-40.45-126.892t-96.97-44.884-88.658 47.654v-41.004zM503.134 349.368q0-57.628 15.514-83.116 25.49-42.112 69.818-42.112 35.462 0 60.952 31.030t25.49 91.982q0 62.062-24.38 91.982t-59.844 29.922-61.506-31.030-26.044-88.658zM320.276 226.356q-29.922-25.49-58.736-36.572-26.598-9.974-58.736-9.974-53.194 0-81.454 25.49t-28.26 65.384q0 24.38 10.528 43.774t27.706 31.030 39.342 17.178q15.514 4.432 48.762 8.866 65.384 7.758 96.416 17.732v14.408q0 33.246-15.514 46.546-21.056 18.84-62.062 18.84-37.68 0-55.966-13.298t-27.152-47.654l-53.194 6.65q7.758 34.356 24.382 55.412t47.654 32.14 72.034 11.082 66.494-9.42 37.68-23.826 17.732-37.68q2.216-13.298 2.216-49.87v-72.034q0-75.36 3.324-95.308t13.298-38.788h-56.52q-7.758 17.732-9.974 39.896zM315.844 347.152q-29.922-12.19-88.658-19.948-33.248-5.542-47.654-11.082-13.3-6.65-21.056-17.732t-7.758-25.49q0-22.164 16.622-36.572t47.654-14.408 55.412 13.852 36.572 37.126q8.866 18.84 8.866 54.302v19.948z" horiz-adv-x="1136" />
<glyph unicode="&#xe05f;" d="M641.662 235.222h-246.026l-28.814-67.602q-14.406-33.246-14.406-55.41 0-28.814 23.274-43.222 14.406-7.758 68.71-12.19v-18.84h-231.618v18.84q37.68 5.542 61.506 31.030t59.29 105.28l248.242 554.114h9.974l250.458-569.628q36.572-80.9 59.844-101.956 16.624-16.624 48.762-18.84v-18.84h-335.792v18.84h13.298q41.004 0 56.52 11.082 11.082 8.866 11.082 24.38 0 8.866-2.216 18.84-1.108 4.432-15.514 37.68zM623.932 274.010l-104.174 239.376-106.39-239.376h210.562z" horiz-adv-x="1136" />
<glyph unicode="&#xe060;" d="M923.152 37.956h-156.26l-60.952 160.692h-283.706l-58.736-160.692h-151.826l275.948 709.264h151.826zM659.394 318.338l-97.524 263.758-95.308-263.758h192.832z" horiz-adv-x="1136" />
<glyph unicode="&#xe061;" d="M885.472 747.222v-191.722h-18.84q-16.624 66.494-36.572 95.308t-56.52 46.544q-19.948 8.866-68.71 8.866h-53.196v-546.356q0-54.302 5.542-68.71 6.65-13.298 24.38-23.274 16.624-9.974 47.654-9.974h23.274v-19.948h-371.254v19.948h23.274q31.030 0 49.87 9.974 13.298 7.758 21.056 25.49 6.65 13.298 6.65 66.494v546.356h-52.086q-70.926 0-104.174-29.922-45.438-42.112-57.628-120.798h-18.84v191.724h636.12z" horiz-adv-x="1136" />
<glyph unicode="&#xe062;" d="M496.486 37.956v589.576h-210.562v119.688h562.978v-119.688h-209.456v-589.576h-142.962z" horiz-adv-x="1136" />
<glyph unicode="&#xe063;" d="M992.97 321.662h-150.72q8.866 34.356 8.866 70.926t-8.866 70.926h150.72q29.922 0 50.424-20.502t20.502-50.424-20.502-50.424-50.424-20.502zM812.328 536.658q-37.68 63.168-100.848 100.848l106.39 106.39q21.056 21.056 50.424 21.056t50.424-21.056 21.056-50.424-21.056-50.424zM496.486 667.428v150.718q0 29.922 20.502 50.424t50.424 20.502 50.424-20.502 20.502-50.424v-150.718q-34.356 8.866-70.926 8.866t-70.926-8.866zM322.494 536.658l-106.39 106.39q-21.056 21.056-21.056 50.424t21.056 50.424 50.424 21.056 50.424-21.056l106.39-106.39q-63.168-37.68-100.848-100.848zM283.706 392.59q0-36.572 8.866-70.926h-150.718q-29.922 0-50.424 20.502t-20.502 50.424 20.502 50.424 50.424 20.502h150.718q-8.866-34.354-8.866-70.926zM322.494 248.52q37.68-63.168 100.848-100.848l-106.39-106.39q-21.056-21.056-50.424-21.056t-50.424 21.056-21.056 50.424 21.056 50.424zM638.338 117.75v-150.72q0-29.922-20.502-50.424t-50.424-20.502-50.424 20.502-20.502 50.424v150.72q34.354-8.866 70.926-8.866t70.926 8.866zM567.41 179.81q-88.658 0-150.718 62.062t-62.060 150.718 62.060 150.72 150.718 62.060 150.718-62.060 62.062-150.72-62.062-150.72-150.72-62.062zM812.328 248.52l106.39-106.39q21.056-21.056 21.056-50.424t-21.056-50.424-50.424-21.056-50.424 21.056l-106.39 106.39q63.168 37.68 100.848 100.848z" horiz-adv-x="1136" />
<glyph unicode="&#xe064;" d="M992.97 321.662h-150.72q8.866 34.356 8.866 70.926t-8.866 70.926h150.72q29.922 0 50.424-20.502t20.502-50.424-20.502-50.424-50.424-20.502zM812.328 536.658q-37.68 63.168-100.848 100.848l106.39 106.39q21.056 21.056 50.424 21.056t50.424-21.056 21.056-50.424-21.056-50.424zM567.41-103.896q-29.922 0-50.424 20.502t-20.502 50.424v150.72q34.354-8.866 70.926-8.866t70.926 8.866v-150.72q0-29.922-20.502-50.424t-50.424-20.502zM496.486 667.428v150.718q0 29.922 20.502 50.424t50.424 20.502 50.424-20.502 20.502-50.424v-150.718q-34.356 8.866-70.926 8.866t-70.926-8.866zM322.494 536.658l-106.39 106.39q-21.056 21.056-21.056 50.424t21.056 50.424 50.424 21.056 50.424-21.056l106.39-106.39q-63.168-37.68-100.848-100.848zM283.706 392.59q0-36.572 8.866-70.926h-150.718q-29.922 0-50.424 20.502t-20.502 50.424 20.502 50.424 50.424 20.502h150.718q-8.866-34.354-8.866-70.926zM567.41 605.368v-425.558q-88.658 0-150.718 62.062t-62.060 150.718 62.060 150.72 150.718 62.060zM322.494 248.52q37.68-63.168 100.848-100.848l-106.39-106.39q-21.056-21.056-50.424-21.056t-50.424 21.056-21.056 50.424 21.056 50.424zM812.328 248.52l106.39-106.39q21.056-21.056 21.056-50.424t-21.056-50.424-50.424-21.056-50.424 21.056l-106.39 106.39q63.168 37.68 100.848 100.848z" horiz-adv-x="1136" />
<glyph unicode="&#xe065;" d="M567.41-103.896q-100.848 0-192.832 39.342t-158.476 105.836-105.834 158.476-39.342 192.832 39.342 192.832 105.834 158.476 158.476 105.836 192.832 39.342 192.832-39.342 158.476-105.836 105.834-158.476 39.342-192.832-39.342-192.832-105.836-158.476-158.476-105.836-192.832-39.342zM567.41 779.36q-105.282 0-194.494-51.532t-140.746-140.746-51.532-194.494 51.532-194.494 140.746-140.746 194.494-51.532v773.542z" horiz-adv-x="1136" />
<glyph unicode="&#xe066;" d="M992.97 179.81h-70.926v283.706q0 29.922-20.502 50.424t-50.424 20.502-50.424-20.502-20.502-50.424v-283.706h-283.706q-29.922 0-50.424-20.502t-20.502-50.424 20.502-50.424 50.424-20.502h283.706v-70.926q0-29.922 20.502-50.424t50.424-20.502 50.424 20.502 20.502 50.424v70.926h70.926q29.922 0 50.424 20.502t20.502 50.424-20.502 50.424-50.424 20.502zM851.116 605.368q29.922 0 50.424 20.502t20.502 50.424-20.502 50.424-50.424 20.502h-496.486v70.926q0 29.922-20.502 50.424t-50.424 20.502-50.424-20.502-20.502-50.424v-70.926h-70.926q-29.922 0-50.424-20.502t-20.502-50.424 20.502-50.424 50.424-20.502h70.926v-496.486q0-29.922 20.502-50.424t50.424-20.502 50.424 20.502 20.502 50.424v496.486h496.486z" horiz-adv-x="1136" />
<glyph unicode="&#xe067;" d="M851.116 37.956h-141.854q-29.922 0-50.424 20.502t-20.502 50.424v496.486q0 29.922 20.502 50.424t50.424 20.502h141.854q29.922 0 50.424-20.502t20.502-50.424v-496.486q0-29.922-20.502-50.424t-50.424-20.502zM531.948-32.97q-14.408 0-24.936 10.528t-10.528 24.934v709.264q0 14.408 10.528 24.936t24.936 10.528 24.934-10.528 10.528-24.936v-709.264q0-14.408-10.528-24.934t-24.934-10.528zM354.632 37.956h-141.854q-29.922 0-50.424 20.502t-20.502 50.424v496.486q0 29.922 20.502 50.424t50.424 20.502h141.854q29.922 0 50.424-20.502t20.502-50.424v-496.486q0-29.922-20.502-50.424t-50.424-20.502zM354.632 534.442q0 29.922-20.502 50.424t-50.424 20.502-50.424-20.502-20.502-50.424v-354.632q0-29.922 20.502-50.424t50.424-20.502 50.424 20.502 20.502 50.424v354.632z" horiz-adv-x="1136" />
<glyph unicode="&#xe068;" d="M709.264 37.956q-29.922 0-50.424 20.502t-20.502 50.424v638.338h1.108l353.524-709.264h-283.706zM425.558 37.956h-283.706l354.632 709.264v-638.338q0-29.922-20.502-50.424t-50.424-20.502zM425.558 394.804l-141.854-285.922h70.926q29.922 0 50.424 20.502t20.502 50.424v214.996z" horiz-adv-x="1136" />
<glyph unicode="&#xe069;" d="M212.778-32.97v283.706q0 29.922 20.502 50.424t50.424 20.502h638.338l1.108-1.108zM212.778 534.442v283.706l709.264-354.632h-638.338q-29.922 0-50.424 20.502t-20.502 50.424zM354.632 534.442h214.996l-285.922 141.854v-70.926q0-29.922 20.502-50.424t50.424-20.502z" horiz-adv-x="1136" />
<glyph unicode="&#xe06a;" d="M851.116 37.956q-29.922 0-50.424 20.502t-20.502 50.424v638.338l354.632-709.264h-283.706zM638.338 37.956h-567.41l638.338 354.632v-283.706q0-29.922-20.502-50.424t-50.424-20.502zM638.338 250.736l-283.706-141.852h212.778q29.922 0 50.424 20.502t20.502 50.424v70.926zM496.486 605.368h-70.926q-27.706 0-49.316-19.394t-21.61-51.532v-141.854h-70.926v172.884q0 35.462 33.8 73.144t68.156 37.68h110.822v70.926l197.264-104.174-197.264-108.606v70.926z" horiz-adv-x="1136" />
<glyph unicode="&#xe06b;" d="M851.116 534.442q0 32.14-21.61 51.532t-49.316 19.394h-70.926v-70.926l-197.264 108.606 197.264 104.174v-70.926h110.822q34.356 0 68.156-37.68t33.802-73.144v-172.884h-70.926v141.854zM567.41 37.956q-29.922 0-50.424 20.502t-20.502 50.424v283.706l638.338-354.632h-567.41zM567.41 179.81q0-29.922 20.502-50.424t50.424-20.502h212.778l-283.706 141.854v-70.926zM354.632 37.956h-283.706l354.632 709.264v-638.338q0-29.922-20.502-50.424t-50.424-20.502z" horiz-adv-x="1136" />
<glyph unicode="&#xe06c;" d="M922.044 818.146h-709.264v-84.224l283.706-283.706v-483.186l141.852 195.048v288.14l283.706 283.706v84.226z" horiz-adv-x="1136" />
<glyph unicode="&#xe06d;" d="M935.342 264.034l-46.544-46.544-638.338 638.338 46.546 46.544 226.078-226.078h398.962v-84.226l-157.368-157.368zM667.152 337.178l-28.814-28.814v-288.14l-141.854-195.048v483.186l-283.706 283.706v84.226h115.254z" horiz-adv-x="1136" />
<glyph unicode="&#xe06e;" d="M1063.896 108.884h-496.486q-29.922 0-50.424-20.502t-20.502-50.424 20.502-50.424 50.424-20.502h496.486q29.922 0 50.424 20.502t20.502 50.424-20.502 50.424-50.424 20.502zM567.41 179.81h354.632q29.922 0 50.424 20.502t20.502 50.424-20.502 50.424-50.424 20.502h-354.632q-29.922 0-50.424-20.502t-20.502-50.424 20.502-50.424 50.424-20.502zM212.778 711.758q0 14.406-10.528 24.934t-24.936 10.528-24.936-10.528-10.528-24.934v-461.022h-141.854l177.316-283.706 177.316 283.706h-141.854v461.022zM567.41 392.59h212.778q29.922 0 50.424 20.502t20.502 50.424-20.502 50.424-50.424 20.502h-212.778q-29.922 0-50.424-20.502t-20.502-50.424 20.502-50.424 50.424-20.502zM567.41 605.368h70.926q29.922 0 50.424 20.502t20.502 50.424-20.502 50.424-50.424 20.502h-70.926q-29.922 0-50.424-20.502t-20.502-50.424 20.502-50.424 50.424-20.502z" horiz-adv-x="1136" />
<glyph unicode="&#xe06f;" d="M780.19 321.662h-212.778q-29.922 0-50.424-20.502t-20.502-50.424 20.502-50.424 50.424-20.502h212.778q29.922 0 50.424 20.502t20.502 50.424-20.502 50.424-50.424 20.502zM1063.896 747.222h-496.486q-29.922 0-50.424-20.502t-20.502-50.424 20.502-50.424 50.424-20.502h496.486q29.922 0 50.424 20.502t20.502 50.424-20.502 50.424-50.424 20.502zM922.044 534.442h-354.632q-29.922 0-50.424-20.502t-20.502-50.424 20.502-50.424 50.424-20.502h354.632q29.922 0 50.424 20.502t20.502 50.424-20.502 50.424-50.424 20.502zM638.338 108.884h-70.926q-29.922 0-50.424-20.502t-20.502-50.424 20.502-50.424 50.424-20.502h70.926q29.922 0 50.424 20.502t20.502 50.424-20.502 50.424-50.424 20.502zM212.778 711.758q0 14.406-10.528 24.934t-24.936 10.528-24.936-10.528-10.528-24.934v-461.022h-141.854l177.316-283.706 177.316 283.706h-141.854v461.022z" horiz-adv-x="1136" />
<glyph unicode="&#xe070;" d="M425.558 605.368h-70.926q-29.922 0-50.424 20.502t-20.502 50.424 20.502 50.424 50.424 20.502h70.926q29.922 0 50.424-20.502t20.502-50.424-20.502-50.424-50.424-20.502zM709.264 392.59h-354.632q-29.922 0-50.424 20.502t-20.502 50.424 20.502 50.424 50.424 20.502h354.632q29.922 0 50.424-20.502t20.502-50.424-20.502-50.424-50.424-20.502zM567.41 179.81h-212.778q-29.922 0-50.424 20.502t-20.502 50.424 20.502 50.424 50.424 20.502h212.778q29.922 0 50.424-20.502t20.502-50.424-20.502-50.424-50.424-20.502zM851.116-32.97h-496.486q-29.922 0-50.424 20.502t-20.502 50.424 20.502 50.424 50.424 20.502h496.486q29.922 0 50.424-20.502t20.502-50.424-20.502-50.424-50.424-20.502z" horiz-adv-x="1136" />
<glyph unicode="&#xe071;" d="M780.19 250.736q29.922 0 50.424 20.502t20.502 50.424-20.502 50.424-50.424 20.502h-141.854q-29.922 0-50.424-20.502t-20.502-50.424 20.502-50.424 50.424-20.502h141.854zM992.97 605.368h-354.632q-29.922 0-50.424-20.502t-20.502-50.424 20.502-50.424 50.424-20.502h354.632q29.922 0 50.424 20.502t20.502 50.424-20.502 50.424-50.424 20.502zM1028.432 179.81h-638.338q-14.406 0-24.936-10.528t-10.528-24.934 10.528-24.934 24.936-10.528h638.338q14.406 0 24.934 10.528t10.528 24.934-10.528 24.934-24.934 10.528zM390.096 676.294h638.338q14.406 0 24.934 10.528t10.528 24.936-10.528 24.934-24.934 10.528h-638.338q-14.406 0-24.936-10.528t-10.528-24.934 10.528-24.936 24.936-10.528zM447.724 425.836l-234.944 201.698v-164.016h-106.39q-14.406 0-24.936-10.528t-10.528-24.936 10.528-24.934 24.936-10.528h106.39v-164.016zM1028.432 37.956h-638.338q-14.406 0-24.936-10.528t-10.528-24.934 10.528-24.934 24.936-10.528h638.338q14.406 0 24.934 10.528t10.528 24.934-10.528 24.934-24.934 10.528z" horiz-adv-x="1136" />
<glyph unicode="&#xe072;" d="M1028.432 179.81h-638.338q-14.406 0-24.936-10.528t-10.528-24.934 10.528-24.934 24.936-10.528h638.338q14.406 0 24.934 10.528t10.528 24.934-10.528 24.934-24.934 10.528zM780.19 250.736q29.922 0 50.424 20.502t20.502 50.424-20.502 50.424-50.424 20.502h-141.854q-29.922 0-50.424-20.502t-20.502-50.424 20.502-50.424 50.424-20.502h141.854zM992.97 605.368h-354.632q-29.922 0-50.424-20.502t-20.502-50.424 20.502-50.424 50.424-20.502h354.632q29.922 0 50.424 20.502t20.502 50.424-20.502 50.424-50.424 20.502zM390.096 676.294h638.338q14.406 0 24.934 10.528t10.528 24.936-10.528 24.934-24.934 10.528h-638.338q-14.406 0-24.936-10.528t-10.528-24.934 10.528-24.936 24.936-10.528zM1028.432 37.956h-638.338q-14.406 0-24.936-10.528t-10.528-24.934 10.528-24.934 24.936-10.528h638.338q14.406 0 24.934 10.528t10.528 24.934-10.528 24.934-24.934 10.528zM390.096 392.59q14.406 0 24.936 10.528t10.528 24.934-10.528 24.936-24.936 10.528h-106.39v164.016l-234.944-201.698 234.944-197.264v164.016h106.39z" horiz-adv-x="1136" />
<glyph unicode="&#xe073;" d="M851.116 108.884q-77.576 0-142.962 38.788t-103.066 103.066h246.026q58.736 0 100.294 41.558t41.558 100.294-41.558 100.294-100.294 41.558h-246.026q37.68 64.278 103.066 103.066t142.962 38.788q117.472 0 200.588-83.118t83.116-200.59-83.116-200.588-200.588-83.116zM283.706 392.59q0 29.922 20.502 50.424t50.424 20.502h425.558q29.922 0 50.424-20.502t20.502-50.424-20.502-50.424-50.424-20.502h-425.558q-29.922 0-50.424 20.502t-20.502 50.424zM141.854 392.59q0-58.736 41.558-100.294t100.294-41.558h246.026q-37.68-64.278-103.064-103.066t-142.962-38.788q-117.472 0-200.588 83.116t-83.118 200.588 83.118 200.588 200.588 83.118q77.576 0 142.962-38.788t103.064-103.064h-246.026q-58.736 0-100.294-41.558t-41.558-100.294z" horiz-adv-x="1136" />
<glyph unicode="&#xe074;" d="M567.41 37.956h70.926v-175.1h-70.926v175.1zM567.41 922.32h70.926v-175.1h-70.926v175.1zM179.532 534.442h354.632v119.688q-52.086 22.166-108.606 22.166-77.576 0-142.962-38.788t-103.064-103.066zM671.584 250.736v-119.688q52.086-22.164 108.606-22.164 77.576 0 142.962 38.788t103.064 103.066h-354.632zM1063.896 463.514h-141.854q-29.922 0-50.424-20.502t-20.502-50.424 20.502-50.424 50.424-20.502h141.854q29.922 0 50.424 20.502t20.502 50.424-20.502 50.424-50.424 20.502zM867.74-14.13l73.144-73.142 39.896 39.896-73.144 73.144zM179.532 250.736q37.68-64.278 103.064-103.064t142.962-38.788q56.52 0 108.606 22.164v119.688h-354.632zM976.346 836.986l-39.896 39.896-73.144-73.144 39.896-39.896zM1026.216 534.442q-37.68 64.278-103.066 103.066t-142.962 38.788q-56.52 0-108.606-22.166v-119.688h354.632zM224.97-47.376l39.896-39.896 73.144 73.144-39.896 39.896zM342.442 803.74l-73.144 73.144-39.896-39.896 73.142-73.142zM354.632 392.59q0 29.922-20.502 50.424t-50.424 20.502h-141.854q-29.922 0-50.424-20.502t-20.502-50.424 20.502-50.424 50.424-20.502h141.854q29.922 0 50.424 20.502t20.502 50.424z" horiz-adv-x="1136" />
<glyph unicode="&#xe075;" d="M141.854-32.97v851.116h354.632v-141.854h-212.778v-567.41h567.41v212.778h141.854v-354.632h-851.116zM618.39 341.61l-99.74 99.74 248.242 248.242-128.554 128.554h354.632v-354.632l-126.338 126.338z" horiz-adv-x="1136" />
<glyph unicode="&#xe076;" d="M795.706 518.926l-196.156-197.264h-103.064v98.632l199.48 198.372-128.554 128.554h354.632v-354.632zM283.706 321.662v-212.778h496.486v212.778h70.926v-283.706h-638.338v638.338h283.706v-70.926h-212.778v-283.706z" horiz-adv-x="1136" />
<glyph unicode="&#xe077;" d="M141.854 605.368v141.854h141.854v-141.854h-141.854zM354.632 605.368v141.854h638.338v-141.854h-638.338zM141.854 392.59v141.852h141.854v-141.852h-141.854zM354.632 392.59v141.852h638.338v-141.852h-638.338zM141.854 179.81v141.854h141.854v-141.854h-141.854zM354.632 179.81v141.854h638.338v-141.854h-638.338zM141.854-32.97v141.854h141.854v-141.854h-141.854zM354.632-32.97v141.854h638.338v-141.854h-638.338z" horiz-adv-x="1136" />
<glyph unicode="&#xe078;" d="M957.506 108.884h-496.486q-14.406 0-24.936-10.528t-10.528-24.934 10.528-24.934 24.936-10.528h496.486q14.408 0 24.934 10.528t10.528 24.934-10.528 24.934-24.934 10.528zM319.168 676.294h-35.464v35.462q0 14.408-10.528 24.936t-24.936 10.528-24.936-10.528-10.528-24.936v-35.462h-35.462q-14.408 0-24.936-10.528t-10.528-24.936 10.528-24.934 24.936-10.528h35.462v-35.462q0-14.408 10.528-24.936t24.936-10.528 24.936 10.528 10.528 24.936v35.462h35.464q14.406 0 24.936 10.528t10.528 24.934-10.528 24.936-24.936 10.528zM957.506 392.59h-496.486q-14.406 0-24.936-10.528t-10.528-24.934 10.528-24.934 24.936-10.528h496.486q14.408 0 24.934 10.528t10.528 24.934-10.528 24.934-24.934 10.528zM461.022 605.368h496.486q14.408 0 24.934 10.528t10.528 24.936-10.528 24.936-24.934 10.528h-496.486q-14.406 0-24.936-10.528t-10.528-24.936 10.528-24.936 24.936-10.528zM319.168 392.59h-35.464v35.462q0 14.408-10.528 24.936t-24.936 10.528-24.936-10.528-10.528-24.936v-35.462h-35.462q-14.408 0-24.936-10.528t-10.528-24.934 10.528-24.934 24.936-10.528h35.462v-35.462q0-14.408 10.528-24.934t24.936-10.528 24.936 10.528 10.528 24.934v35.462h35.464q14.406 0 24.936 10.528t10.528 24.934-10.528 24.934-24.936 10.528zM319.168 108.884h-35.464v35.462q0 14.408-10.528 24.934t-24.936 10.528-24.936-10.528-10.528-24.934v-35.462h-35.462q-14.408 0-24.936-10.528t-10.528-24.934 10.528-24.934 24.936-10.528h35.462v-35.462q0-14.408 10.528-24.934t24.936-10.528 24.936 10.528 10.528 24.934v35.462h35.464q14.406 0 24.936 10.528t10.528 24.934-10.528 24.934-24.936 10.528z" horiz-adv-x="1136" />
<glyph unicode="&#xe079;" d="M837.818 101.126q-21.056 59.844 78.684 345.766l5.542 16.622-270.408 270.406q8.866-3.326 23.826-9.42t57.628-26.044 81.456-39.896 86.442-49.316 82.010-57.074 57.628-60.398 23.272-61.506q-70.926-439.964-154.044-428.884-36.572 5.542-72.034 99.74zM802.356 347.152l-291.464-291.462q-32.14-32.14-60.398-45.99t-53.194-8.312-43.774 18.286-43.222 36.018l-149.61 150.72q-100.848 100.848 0 200.588l292.572 292.572q23.274 23.274 33.8 32.14t24.382 8.866 24.38-8.866 33.802-32.14l232.726-231.62q41.004-42.114 41.004-60.952t-41.004-59.844zM627.254 412.538l-95.308 95.308q-21.056 19.948-50.424 19.948t-49.316-19.948l-50.978-50.978q-19.948-19.948-19.948-49.316t19.948-50.424l95.308-95.308q21.056-21.056 50.424-21.056t50.424 21.056l49.87 49.87q21.056 21.056 21.056 50.424t-21.056 50.424z" horiz-adv-x="1136" />
<glyph unicode="&#xe07a;" d="M780.19-103.896h-425.558q-58.736 0-100.294 41.558t-41.558 100.294v567.41q0 58.736 41.558 100.294t100.294 41.558h25.488q33.248 54.302 89.212 98.078t98.078 43.774 98.078-43.774 89.212-98.078h25.49q58.736 0 100.294-41.558t41.558-100.294v-567.41q0-58.736-41.558-100.294t-100.294-41.558zM567.41 818.146q-29.922 0-50.424-20.502t-20.502-50.424h141.854q0 29.922-20.502 50.424t-50.424 20.502zM851.116 605.368q0 29.922-20.502 50.424t-50.424 20.502h-70.926q0-29.922-20.502-50.424t-50.424-20.502h-141.854q-29.922 0-50.424 20.502t-20.502 50.424h-70.926q-29.922 0-50.424-20.502t-20.502-50.424v-496.484q0-29.922 20.502-50.424t50.424-20.502h141.854q5.54 0 15.514 0.554t37.68 5.542 51.532 13.298 50.978 27.152 43.774 44.328q98.632-101.956 136.312 75.36 18.84 85.332 18.84 188.398v212.778z" horiz-adv-x="1136" />
<glyph unicode="&#xe07b;" d="M713.698 738.356h-1.108l-508.676-508.676-132.986-333.576 333.576 134.096h1.108l507.568 507.568v1.108zM283.706 108.884l-49.87 49.87v1.108l478.752 477.644q0 1.108 1.108 0l48.762-48.762v-1.108zM863.308 889.074l-99.74-99.74q-1.108-1.108 0-1.108l199.48-199.48q0-1.108 1.108 0l99.74 99.74z" horiz-adv-x="1136" />
<glyph unicode="&#xe07c;" d="M992.97-32.97h-851.116q-29.922 0-50.424 20.502t-20.502 50.424v709.264q0 29.922 20.502 50.424t50.424 20.502h851.116q29.922 0 50.424-20.502t20.502-50.424v-709.264q0-29.922-20.502-50.424t-50.424-20.502zM992.97 676.294q0 29.922-20.502 50.424t-50.424 20.502h-709.264q-29.922 0-50.424-20.502t-20.502-50.424v-425.558l249.35 212.778 282.596-247.134 152.936 176.208 166.234-141.854v425.558zM673.802 463.514q-44.328 0-75.36 31.030t-31.030 75.36 31.030 75.358 75.36 31.030 75.36-31.030 31.030-75.358-31.030-75.36-75.36-31.030z" horiz-adv-x="1136" />
<glyph unicode="&#xe07d;" d="M780.19 569.904q0-44.328-31.030-75.358t-75.36-31.030-75.36 31.030-31.030 75.36 31.030 75.358 75.36 31.030 75.36-31.030 31.030-75.358zM992.97-32.97h-673.802q44.33 0 75.358 31.030t31.030 75.36-31.030 75.36-75.358 31.030h-35.464v35.462q0 33.246-18.84 60.398t-48.762 38.234l175.1 149.61 282.596-247.134 152.936 176.208 166.234-141.854v425.558q0 29.922-20.502 50.424t-50.424 20.502h-709.264q-29.922 0-50.424-20.502t-20.502-50.424v-361.28q-31.030-11.082-50.978-38.234t-19.948-61.506v531.948q0 29.922 20.502 50.424t50.424 20.502h851.116q29.922 0 50.424-20.502t20.502-50.424v-709.264q0-28.814-20.502-49.87t-50.424-21.056zM141.854 215.274q0 14.408 10.528 24.934t24.936 10.528 24.936-10.528 10.528-24.934v-106.39h106.39q14.406 0 24.936-10.528t10.528-24.934-10.528-24.934-24.936-10.528h-106.39v-106.39q0-14.406-10.528-24.934t-24.936-10.528-24.936 10.528-10.528 24.934v106.39h-106.39q-14.408 0-24.934 10.528t-10.528 24.934 10.528 24.934 24.934 10.528h106.39v106.39z" horiz-adv-x="1136" />
<glyph unicode="&#xe07e;" d="M1063.896-103.896h-992.97q-29.922 0-50.424 20.502t-20.502 50.424v283.706q0 29.922 20.502 50.424t50.424 20.502h141.854v425.558q0 29.922 20.502 50.424t50.424 20.502h425.558q120.798 0 166.788-45.99t45.99-166.788v-283.706h141.854q29.922 0 50.424-20.502t20.502-50.424v-283.706q0-29.922-20.502-50.424t-50.424-20.502zM709.264 605.368v141.854h-354.632q-29.922 0-50.424-20.502t-20.502-50.424v-354.632h567.41v283.706h-141.854zM496.486 215.274q0-14.408 10.528-24.934t24.934-10.528h70.926q14.408 0 24.934 10.528t10.528 24.934-10.528 24.934-24.934 10.528h-70.926q-14.408 0-24.936-10.528t-10.528-24.934zM851.116 108.884h-567.41q-29.922 0-50.424-20.502t-20.502-50.424 20.502-50.424 50.424-20.502h567.41q29.922 0 50.424 20.502t20.502 50.424-20.502 50.424-50.424 20.502z" horiz-adv-x="1136" />
<glyph unicode="&#xe07f;" d="M892.12-32.97l-231.62 232.726 99.74 99.74 232.726-231.62v-100.848h-100.848zM425.558 179.81q-96.416 0-177.87 47.654t-129.108 129.108-47.654 177.87 47.654 177.87 129.108 129.108 177.87 47.654 177.87-47.654 129.108-129.108 47.654-177.87-47.654-177.87-129.108-129.108-177.87-47.654zM425.558 747.222q-88.658 0-150.718-62.060t-62.062-150.72 62.062-150.72 150.718-62.062 150.72 62.062 62.062 150.72-62.062 150.718-150.718 62.062z" horiz-adv-x="1136" />
<glyph unicode="&#xe080;" d="M780.19 534.442q0 96.416-47.654 177.87t-129.108 129.108-177.87 47.654-177.87-47.654-129.108-129.108-47.654-177.87 47.654-177.87 129.108-129.108 177.87-47.654 177.87 47.654 129.108 129.108 47.654 177.87zM638.338 463.514h-141.854v-141.852h-141.854v141.854h-141.854v141.854h141.854v141.852h141.854v-141.852h141.854v-141.854zM992.97 67.88l-232.726 231.62-99.74-99.74 231.62-232.726h100.848v100.848z" horiz-adv-x="1136" />
<glyph unicode="&#xe081;" d="M992.97 67.88l-232.726 231.62-99.74-99.74 231.62-232.726h100.848v100.848zM780.19 534.442q0 96.416-47.654 177.87t-129.108 129.108-177.87 47.654-177.87-47.654-129.108-129.108-47.654-177.87 47.654-177.87 129.108-129.108 177.87-47.654 177.87 47.654 129.108 129.108 47.654 177.87zM638.338 463.514h-425.558v141.852h425.558v-141.852z" horiz-adv-x="1136" />
<glyph unicode="&#xe082;" d="M909.852 276.226l-200.59 116.364 200.588 116.364q25.49 14.408 33.246 42.668t-7.202 53.75-43.222 33.248-53.75-7.758l-200.59-115.254v231.62q0 29.922-20.502 50.424t-50.424 20.502-50.424-20.502-20.502-50.424v-231.62l-200.588 115.254q-25.488 15.514-53.748 7.758t-43.222-33.248-7.204-53.75 33.248-42.668l200.588-116.364-200.588-116.364q-25.49-14.408-33.248-42.668t7.204-53.75 43.222-33.246 53.748 7.758l200.588 115.254v-231.62q0-29.922 20.502-50.424t50.424-20.502 50.424 20.502 20.502 50.424v231.62l200.588-115.254q25.49-15.514 53.75-7.758t43.222 33.246 7.202 53.75-33.246 42.668z" horiz-adv-x="1136" />
<glyph unicode="&#xe083;" d="M566.302 960q-117.472 0-200.588-83.116t-83.118-200.59v-638.338q0-87.55 62.616-150.166t150.164-62.616 150.164 62.616 62.616 150.164v638.338q0 58.736-41.558 100.294t-100.294 41.558-100.294-41.558-41.558-100.294v-567.41h70.926v567.41q0 28.814 21.056 49.87t49.87 21.056 49.87-21.056 21.056-49.87v-638.338q0-58.736-41.558-100.294t-100.294-41.558-100.294 41.558-41.558 100.294v638.338q0 87.55 62.616 150.164t150.164 62.616 150.164-62.616 62.616-150.164v-567.41h70.926v567.41q0 117.472-83.116 200.59t-200.59 83.116z" horiz-adv-x="1136" />
<glyph unicode="&#xe084;" d="M165.126 793.766q-83.118-83.116-83.118-200.588t83.118-200.59l451.048-451.048q62.062-62.060 150.72-62.060t150.72 62.062 62.062 150.164-62.062 150.164l-150.72 150.718-100.848 99.74-200.588 201.698q-41.004 41.004-99.74 41.004t-100.294-41.558-41.558-100.294 41.004-100.848l401.176-401.178 50.978 50.978-401.178 401.178q-21.056 19.948-21.056 49.87t20.502 50.424 49.87 20.502 50.424-21.056l200.588-200.59 100.848-99.74 149.61-150.72q42.112-41.004 42.112-100.294t-41.558-100.294-100.294-41.004-100.848 41.004l-451.048 451.048q-62.062 62.060-62.062 150.72t62.062 150.718 150.718 62.062 150.718-62.062l401.178-401.178 49.87 49.87-401.178 401.178q-83.118 83.116-200.588 83.116t-200.588-83.116z" horiz-adv-x="1136" />
<glyph unicode="&#xe085;" d="M638.338 250.736h141.854v70.926h-70.926v70.926h-70.926v-70.926h-141.854v-141.854h141.854v70.926zM709.264 108.884v70.926h-70.926v-70.926h-141.854v-70.926h141.854v-141.852h141.854v212.778h-70.926zM992.97-32.97h-70.926v-70.926h141.852v354.632h-70.926v-283.706zM1063.896 321.662v70.926h-141.854v70.926h-141.854v-70.926h70.926v-354.632h70.926v283.706h141.854zM709.264 889.074v-354.632h354.632v354.632h-354.632zM992.97 605.368h-212.778v212.778h212.778v-212.778zM851.116 747.222h70.926v-70.926h-70.926v70.926zM70.926-103.896h354.632v354.632h-354.632v-354.632zM141.854 179.81h212.778v-212.778h-212.778v212.778zM496.486-32.97h70.926v-70.926h-70.926v70.926zM567.41 818.146h70.926v70.926h-141.854v-283.706h70.926v212.778zM212.778 747.222h70.926v-70.926h-70.926v70.926zM425.558 889.074h-354.632v-354.632h354.632v354.632zM354.632 605.368h-212.778v212.778h212.778v-212.778zM496.486 534.442v-70.926h-425.558v-70.926h70.926v-70.926h70.926v70.926h354.632v70.926h70.926v70.926h-141.854zM212.778 108.884h70.926v-70.926h-70.926v70.926z" horiz-adv-x="1136" />
<glyph unicode="&#xe086;" d="M920.934 764.952q1.108-8.866 1.108-17.732v-638.338q0-58.736-41.558-100.294t-100.294-41.558h-390.096q-14.406 0-24.936 10.528t-10.528 24.934 10.528 24.934 24.936 10.528h319.168q58.736 0 100.294 41.558t41.558 100.294v567.41q0 58.736-41.558 100.294t-100.294 41.558h-354.632q-58.736 0-100.294-41.558t-41.558-100.294v-638.338q0-88.658 62.060-150.718t150.718-62.060h354.632q88.658 0 150.718 62.062t62.062 150.718v496.486q0 96.416-72.034 159.584zM390.096 676.294h283.706q14.408 0 24.934-10.528t10.528-24.936-10.528-24.934-24.934-10.528h-283.706q-14.406 0-24.936 10.528t-10.528 24.934 10.528 24.936 24.936 10.528zM390.096 534.442h283.706q14.408 0 24.934-10.528t10.528-24.936-10.528-24.936-24.934-10.528h-283.706q-14.406 0-24.936 10.528t-10.528 24.936 10.528 24.936 24.936 10.528zM390.096 392.59h141.854q14.408 0 24.934-10.528t10.528-24.934-10.528-24.934-24.934-10.528h-141.854q-14.406 0-24.936 10.528t-10.528 24.934 10.528 24.934 24.936 10.528z" horiz-adv-x="1136" />
<glyph unicode="&#xe087;" d="M851.116 818.146h-496.486v-848.9q5.54 7.758 22.166 28.814t24.936 32.14 23.826 31.030 25.488 31.030 24.936 27.152 25.488 24.934 22.718 18.286 23.274 13.298 19.948 3.88q28.814 0 75.36-44.328t85.886-97.524 75.36-97.524 47.1-44.33q27.706 0 49.316 21.056t21.61 49.87v780.19q0 29.922-20.502 50.424t-50.424 20.502zM212.778 747.222v-780.19q0-28.814 21.056-49.87t49.87-21.056v922.044q-29.922 0-50.424-20.502t-20.502-50.424z" horiz-adv-x="1136" />
<glyph unicode="&#xe088;" d="M922.044 534.442h-141.852v141.854q0 29.922-20.502 50.424t-50.424 20.502h-283.706q-29.922 0-50.424-20.502t-20.502-50.424v-141.854h-141.854q-29.922 0-50.424-20.502t-20.502-50.424v-141.854h851.116v141.854q0 29.922-20.502 50.424t-50.424 20.502zM709.264 534.442h-283.706v106.39q0 14.408 10.528 24.936t24.936 10.528h212.778q14.408 0 24.934-10.528t10.528-24.936v-106.39zM602.874 179.81q14.408 0 24.934 10.528t10.528 24.934-10.528 24.934-24.934 10.528h-70.926q-14.408 0-24.936-10.528t-10.528-24.934 10.528-24.934 24.936-10.528h70.926zM709.264 179.81q0-29.922-20.502-50.424t-50.424-20.502h-141.854q-29.922 0-50.424 20.502t-20.502 50.424v70.926h-283.706v-212.778q0-29.922 20.502-50.424t50.424-20.502h709.264q29.922 0 50.424 20.502t20.502 50.424v212.778h-283.706v-70.926z" horiz-adv-x="1136" />
<glyph unicode="&#xe089;" d="M780.19 108.884q-29.922 0-50.424-20.502t-20.502-50.424 20.502-50.424 50.424-20.502 50.424 20.502 20.502 50.424-20.502 50.424-50.424 20.502zM567.41 321.662q-29.922 0-50.424-20.502t-20.502-50.424 20.502-50.424 50.424-20.502 50.424 20.502 20.502 50.424-20.502 50.424-50.424 20.502zM780.19 534.442q-29.922 0-50.424-20.502t-20.502-50.424 20.502-50.424 50.424-20.502 50.424 20.502 20.502 50.424-20.502 50.424-50.424 20.502zM992.97 818.146h-141.854v-70.926q0-29.922-20.502-50.424t-50.424-20.502-50.424 20.502-20.502 50.424v70.926h-283.706v-70.926q0-29.922-20.502-50.424t-50.424-20.502-50.424 20.502-20.502 50.424v70.926h-141.854q-29.922 0-50.424-20.502t-20.502-50.424v-851.118q0-29.922 20.502-50.424t50.424-20.502h851.116q29.922 0 50.424 20.502t20.502 50.424v851.116q0 29.922-20.502 50.424t-50.424 20.502zM992.97-32.97q0-29.922-20.502-50.424t-50.424-20.502h-709.264q-29.922 0-50.424 20.502t-20.502 50.424v567.41q0 29.922 20.502 50.424t50.424 20.502h709.264q29.922 0 50.424-20.502t20.502-50.424v-567.41zM780.19 321.662q-29.922 0-50.424-20.502t-20.502-50.424 20.502-50.424 50.424-20.502 50.424 20.502 20.502 50.424-20.502 50.424-50.424 20.502zM567.41 108.884q-29.922 0-50.424-20.502t-20.502-50.424 20.502-50.424 50.424-20.502 50.424 20.502 20.502 50.424-20.502 50.424-50.424 20.502zM638.338 463.514q0-29.922-20.502-50.424t-50.424-20.502-50.424 20.502-20.502 50.424 20.502 50.424 50.424 20.502 50.424-20.502 20.502-50.424zM354.632 534.442q-29.922 0-50.424-20.502t-20.502-50.424 20.502-50.424 50.424-20.502 50.424 20.502 20.502 50.424-20.502 50.424-50.424 20.502zM780.19 747.222q29.922 0 50.424 20.502t20.502 50.424-20.502 50.424-50.424 20.502-50.424-20.502-20.502-50.424 20.502-50.424 50.424-20.502zM354.632 747.222q29.922 0 50.424 20.502t20.502 50.424-20.502 50.424-50.424 20.502-50.424-20.502-20.502-50.424 20.502-50.424 50.424-20.502zM354.632 108.884q-29.922 0-50.424-20.502t-20.502-50.424 20.502-50.424 50.424-20.502 50.424 20.502 20.502 50.424-20.502 50.424-50.424 20.502zM354.632 321.662q-29.922 0-50.424-20.502t-20.502-50.424 20.502-50.424 50.424-20.502 50.424 20.502 20.502 50.424-20.502 50.424-50.424 20.502z" horiz-adv-x="1136" />
<glyph unicode="&#xe08a;" d="M922.044 37.956h-709.264q-29.922 0-50.424 20.502t-20.502 50.424v425.558q0 29.922 20.502 50.424t50.424 20.502h108.606q37.68 64.276 103.064 103.064t142.962 38.788 142.962-38.788 103.066-103.064h108.606q29.922 0 50.424-20.502t20.502-50.424v-425.558q0-29.922-20.502-50.424t-50.424-20.502zM567.41 605.368q-88.658 0-150.718-62.060t-62.060-150.72 62.060-150.72 150.718-62.062 150.718 62.062 62.062 150.72-62.062 150.72-150.72 62.060zM886.58 179.81q-14.408 0-24.934-10.528t-10.528-24.934 10.528-24.934 24.934-10.528 24.934 10.528 10.528 24.934-10.528 24.934-24.934 10.528zM567.41 282.874q-45.438 0-77.576 32.14t-32.14 77.576 32.14 77.576 77.576 32.14 77.576-32.14 32.14-77.576-32.14-77.576-77.576-32.14z" horiz-adv-x="1136" />
<glyph unicode="&#xe08b;" d="M1063.896 638.616l-354.632-205.022v171.774q0 29.922-20.502 50.424t-50.424 20.502h-496.486q-29.922 0-50.424-20.502t-20.502-50.424v-425.558q0-29.922 20.502-50.424t50.424-20.502h496.486q29.922 0 50.424 20.502t20.502 50.424v171.774l354.632-205.022v492.052z" horiz-adv-x="1136" />
<glyph unicode="&#xe08c;" d="M868.848 210.84q-108.606-39.896-60.398-145.178t-56.52-56.52-144.622-59.844-79.792 0-144.622 59.844-56.52 56.52-60.398 145.178q-54.302 19.948-54.302 39.896t54.302 39.896q108.606 39.896 60.398 144.622t55.964 55.966q41.004-18.84 72.034-13.298-28.814 21.056-28.814 56.52v283.706q0 29.922 20.502 50.424t50.424 20.502v-390.096q0-14.406 10.528-24.936t24.934-10.528 24.934 10.528 10.528 24.936v390.094h70.926q28.814 0 49.87-20.502t21.056-50.424v-283.706q0-35.464-28.814-56.52 31.030-5.54 72.034 13.298 104.174 48.762 55.966-55.966t60.398-144.624 0-79.792z" horiz-adv-x="1136" />
<glyph unicode="&#xe08d;" d="M567.41 889.074q-100.848 0-192.832-39.342t-158.476-105.836-105.834-158.476-39.342-192.832 39.342-192.832 105.834-158.476 158.476-105.834 192.832-39.342 192.832 39.342 158.476 105.836 105.834 158.476 39.342 192.832-39.342 192.832-105.836 158.476-158.476 105.836-192.832 39.342zM567.41 5.818q-105.282 0-194.494 51.532t-140.746 140.746-51.532 194.494 51.532 194.494 140.746 140.746 194.494 51.532 194.494-51.532 140.746-140.746 51.532-194.494-51.532-194.494-140.746-140.746-194.494-51.532zM567.41 605.368h-70.926v-283.706h283.706v70.926h-212.778v212.778z" horiz-adv-x="1136" />
<glyph unicode="&#xe08e;" d="M979.672 420.294q13.298 37.68 13.298 78.684 0 103.064-72.588 175.654t-175.654 72.59q-62.062 0-115.254-28.26t-87.55-77.022q-53.194 34.356-116.364 34.356-87.55 0-149.61-62.062t-62.062-150.718v-12.19q-63.17-21.056-103.064-76.468t-39.896-124.12q0-88.658 62.060-150.718t150.718-62.062h567.41q88.658 0 150.72 62.062t62.060 150.72q0 50.978-22.164 95.308t-62.062 74.25z" horiz-adv-x="1136" />
<glyph unicode="&#xe08f;" d="M909.852 121.074q12.19 27.706 12.19 58.736v283.706q0 58.736-41.558 100.294t-100.294 41.558h-354.632q-31.030 0-58.736-12.19 17.732 37.68 52.642 60.398t77.022 22.718h354.632q58.736 0 100.294-41.558t41.558-100.294v-283.706q0-42.112-22.72-77.022t-60.398-52.64zM851.116 392.59v-212.778q0-58.736-41.558-100.294t-100.294-41.558h-354.632q-58.736 0-100.294 41.558t-41.558 100.294v212.778q0 58.736 41.558 100.294t100.294 41.558h354.632q58.736 0 100.294-41.558t41.558-100.294zM283.706 250.736v-70.926q0-29.922 20.502-50.424t50.424-20.502h354.632q29.922 0 50.424 20.502t20.502 50.424v70.926q0 29.922-20.502 50.424t-50.424 20.502h-354.632q-29.922 0-50.424-20.502t-20.502-50.424z" horiz-adv-x="1136" />
<glyph unicode="&#xe090;" d="M212.778-32.97v780.19h212.778v-780.19h-212.778zM496.486-32.97v780.19h212.778v-780.19h-212.778zM780.19-32.97v780.19h212.778v-780.19h-212.778z" horiz-adv-x="1136" />
<glyph unicode="&#xe091;" d="M567.41 747.222q-115.254 0-213.332-43.774t-155.152-118.58-57.074-162.354q0-76.468 42.668-142.408t118.026-111.376q3.324-31.030-4.988-62.616t-21.61-55.412-28.26-43.222-24.382-29.922-10.528-10.528q7.758 2.216 21.61 5.542t52.086 16.624 70.372 27.706 67.048 38.234 52.642 49.316q46.546-7.758 90.874-7.758 115.254 0 213.332 43.774t155.152 118.58 57.074 162.908-57.074 162.908-155.152 118.58-213.332 43.774z" horiz-adv-x="1136" />
<glyph unicode="&#xe092;" d="M567.41 747.222q-115.254 0-213.332-43.774t-155.152-118.58-57.074-162.354q0-76.468 42.668-142.408t118.026-111.376q3.324-31.030-4.988-62.616t-21.61-55.412-28.26-43.222-24.382-29.922-10.528-10.528q7.758 2.216 21.61 5.542t52.086 16.624 70.372 27.706 67.048 38.234 52.642 49.316q46.546-7.758 90.874-7.758 115.254 0 213.332 43.774t155.152 118.58 57.074 162.908-57.074 162.908-155.152 118.58-213.332 43.774zM570.736 162.078q-45.438 0-119.688 12.19-23.274-33.246-50.978-59.29t-44.33-36.018l-15.514-9.974q4.432 5.542 9.974 16.624t13.298 47.1 3.324 74.806q-63.168 37.68-105.282 96.97t-42.112 119.134q0 108.606 102.51 185.074t248.242 76.468 248.242-76.468 102.51-185.074-102.51-185.074-247.688-76.468z" horiz-adv-x="1136" />
<glyph unicode="&#xe093;" d="M425.558 747.222q-96.416 0-177.87-36.018t-129.108-98.632-47.654-135.758q0-63.168 35.462-118.58t98.632-93.092q2.216-25.49-4.432-52.086t-17.732-46.544-23.272-36.018-20.502-24.934-9.42-8.866q6.65 2.216 18.286 4.986t43.222 13.852 58.736 23.274 55.966 32.14 44.33 41.004q38.788-6.65 75.358-6.65 96.416 0 177.87 36.572t129.108 98.632 47.654 135.758-47.654 136.312-129.108 98.632-177.87 36.018zM933.126 131.048q60.952 37.68 95.862 91.982t34.91 116.364q0 82.010-60.398 149.056t-156.814 96.97q34.356-60.952 34.356-127.446 0-126.338-110.822-218.874t-273.732-104.726q97.524-60.952 219.43-60.952 36.572 0 74.25 6.65 23.274-33.246 77.022-61.506t95.86-40.45l43.222-11.082-8.866 8.866t-19.394 23.274-23.826 36.572-17.178 44.884-3.88 50.424z" horiz-adv-x="1136" />
<glyph unicode="&#xe094;" d="M425.558 747.222q-96.416 0-177.87-36.018t-129.108-98.632-47.654-135.758q0-63.168 35.462-118.58t98.632-93.092q2.216-25.49-4.432-52.086t-17.732-46.544-23.272-36.018-20.502-24.934-9.42-8.866q6.65 2.216 18.286 4.986t43.222 13.852 58.736 23.274 55.966 32.14 44.33 41.004q38.788-6.65 75.358-6.65 96.416 0 177.87 36.572t129.108 98.632 47.654 135.758-47.654 136.312-129.108 98.632-177.87 36.018zM425.558 264.034q-28.814 0-79.792 7.758-18.84-26.596-44.33-47.1t-42.112-27.152l-16.622-7.758q4.432 4.432 9.974 12.19t13.854 36.018 4.988 59.29q-50.978 31.030-86.996 80.9t-36.016 97.524q0 87.55 80.9 149.61t196.156 62.062 196.156-62.062 80.9-149.61-80.9-149.61-196.156-62.062zM933.126 131.048q60.952 37.68 95.862 91.982t34.91 116.364q0 82.010-60.398 149.056t-156.814 96.97q34.356-60.952 34.356-127.446 0-126.338-110.822-218.874t-273.732-104.726q97.524-60.952 219.43-60.952 36.572 0 74.25 6.65 23.274-33.246 77.022-61.506t95.86-40.45l43.222-11.082-8.866 8.866t-19.394 23.274-23.826 36.572-17.178 44.884-3.88 50.424z" horiz-adv-x="1136" />
<glyph unicode="&#xe095;" d="M922.044 676.294h-709.264q-29.922 0-50.424-20.502t-20.502-50.424v-70.926h851.116v70.926q0 29.922-20.502 50.424t-50.424 20.502zM141.854 179.81q0-28.814 20.502-49.87t50.424-21.056h709.264q29.922 0 50.424 21.056t20.502 49.87v212.778h-851.116v-212.778zM461.022 321.662h212.778q14.408 0 24.934-10.528t10.528-24.934-10.528-24.934-24.934-10.528h-212.778q-14.406 0-24.936 10.528t-10.528 24.934 10.528 24.934 24.936 10.528zM248.242 321.662h70.926q14.406 0 24.936-10.528t10.528-24.934-10.528-24.934-24.936-10.528h-70.926q-14.408 0-24.936 10.528t-10.528 24.934 10.528 24.934 24.936 10.528z" horiz-adv-x="1136" />
<glyph unicode="&#xe096;" d="M992.97 392.59q-29.922 0-50.424-20.502t-20.502-50.424v-283.706h-709.264v283.706q0 29.922-20.502 50.424t-50.424 20.502-50.424-20.502-20.502-50.424v-354.632q0-29.922 20.502-50.424t50.424-20.502h851.116q29.922 0 50.424 20.502t20.502 50.424v354.632q0 29.922-20.502 50.424t-50.424 20.502zM567.41 179.81l246.026 354.632h-175.1v283.706q0 29.922-20.502 50.424t-50.424 20.502-50.424-20.502-20.502-50.424v-283.706h-175.1z" horiz-adv-x="1136" />
<glyph unicode="&#xe097;" d="M425.558 534.442v212.778h141.854v-212.778h-141.854zM638.338 534.442v212.778h141.854v-212.778h-141.854zM425.558 250.736v212.778h141.854v-212.778h-141.854zM638.338 250.736v212.778h141.854v-212.778h-141.854zM425.558-32.97v212.778h141.854v-212.778h-141.854zM638.338-32.97v212.778h141.854v-212.778h-141.854z" horiz-adv-x="1136" />
<glyph unicode="&#xe098;" d="M425.558 605.368v141.854h141.854v-141.854h-141.854zM638.338 605.368v141.854h141.854v-141.854h-141.854zM425.558 392.59v141.852h141.854v-141.852h-141.854zM638.338 392.59v141.852h141.854v-141.852h-141.854zM425.558 179.81v141.854h141.854v-141.854h-141.854zM638.338 179.81v141.854h141.854v-141.854h-141.854zM425.558-32.97v141.854h141.854v-141.854h-141.854zM638.338-32.97v141.854h141.854v-141.854h-141.854z" horiz-adv-x="1136" />
<glyph unicode="&#xe099;" d="M567.41 300.606l-373.472 373.472q9.974 2.216 18.84 2.216h709.264q8.866 0 18.84-2.216zM617.28 250.736l373.472 373.472q2.216-9.974 2.216-18.84v-425.558q0-8.866-2.216-18.84l-221.644 221.644-49.87-49.87 221.644-221.644q-9.974-2.216-18.84-2.216h-709.264q-8.866 0-18.84 2.216l221.646 221.644-49.87 49.87-221.646-221.644q-2.216 9.974-2.216 18.84v425.558q0 8.866 2.216 18.84l423.342-423.342z" horiz-adv-x="1136" />
<glyph unicode="&#xe09a;" d="M567.41 821.472l357.956-357.956q5.542 0 15.514-2.216l-373.472-373.472-373.472 373.472q9.974 2.216 15.514 2.216zM567.41-7.48l2.216-2.216 421.126 421.126q2.216-9.974 2.216-18.84v-425.558q0-8.866-2.216-18.84l-221.644 221.644-49.87-49.87 221.644-221.644q-9.974-2.216-18.84-2.216h-709.264q-8.866 0-18.84 2.216l221.646 221.644-49.87 49.87-221.646-221.644q-2.216 9.974-2.216 18.84v425.558q0 8.866 2.216 18.84l421.126-421.126z" horiz-adv-x="1136" />
<glyph unicode="&#xe09b;" d="M567.41 498.978q-44.328 0-75.358-31.030t-31.030-75.36 31.030-75.36 75.36-31.030 75.36 31.030 31.030 75.36-31.030 75.358-75.36 31.030zM567.41 747.222q-176.208 0-319.168-98.078t-206.13-256.554q63.168-158.476 206.13-256.554t319.168-98.078 319.168 98.078 206.13 256.554q-63.17 158.476-206.13 256.554t-319.168 98.078zM567.41 179.81q-88.658 0-150.718 62.062t-62.060 150.718 62.060 150.72 150.718 62.060 150.718-62.060 62.062-150.72-62.062-150.72-150.72-62.062z" horiz-adv-x="1136" />
<glyph unicode="&#xe09c;" d="M851.116-32.97h-567.41q-29.922 0-50.424 20.502t-20.502 50.424v709.264q0 29.922 20.502 50.424t50.424 20.502h425.558q34.356 0 85.332-38.788t89.212-89.766 38.234-84.224v-567.41q0-29.922-20.502-50.424t-50.424-20.502zM709.264 605.368v141.854h-354.632q-29.922 0-50.424-20.502t-20.502-50.424v-567.412q0-29.922 20.502-50.424t50.424-20.502h425.558q29.922 0 50.424 20.502t20.502 50.424v496.486h-141.854z" horiz-adv-x="1136" />
<glyph unicode="&#xe09d;" d="M957.506 37.956h-106.39v-106.39q0-14.406-10.528-24.934t-24.934-10.528-24.934 10.528-10.528 24.934v106.39h-106.39q-14.408 0-24.934 10.528t-10.528 24.934 10.528 24.934 24.934 10.528h106.39v106.39q0 14.408 10.528 24.934t24.934 10.528 24.934-10.528 10.528-24.934v-106.39h106.39q14.408 0 24.934-10.528t10.528-24.934-10.528-24.934-24.934-10.528zM851.116 315.014v290.356h-141.854v141.852h-354.632q-29.922 0-50.424-20.502t-20.502-50.424v-567.41q0-29.922 20.502-50.424t50.424-20.502h219.43q11.082-31.030 38.234-50.978t61.506-19.948h-390.096q-29.922 0-50.424 20.502t-20.502 50.424v709.264q0 29.922 20.502 50.424t50.424 20.502h425.558q34.356 0 85.332-38.234t89.212-89.212 38.234-85.332v-390.096q0 34.356-19.948 61.506t-50.978 38.234z" horiz-adv-x="1136" />
<glyph unicode="&#xe09e;" d="M851.116 818.146h-567.41q-29.922 0-50.424-20.502t-20.502-50.424v-780.19q0-29.922 20.502-50.424t50.424-20.502h567.41q29.922 0 50.424 20.502t20.502 50.424v780.19q0 29.922-20.502 50.424t-50.424 20.502zM319.168-32.97q-14.406 0-24.936 10.528t-10.528 24.934 10.528 24.934 24.936 10.528 24.936-10.528 10.528-24.934-10.528-24.934-24.936-10.528zM319.168 108.884q-14.406 0-24.936 10.528t-10.528 24.934 10.528 24.934 24.936 10.528 24.936-10.528 10.528-24.934-10.528-24.934-24.936-10.528zM319.168 250.736q-14.406 0-24.936 10.528t-10.528 24.934 10.528 24.934 24.936 10.528 24.936-10.528 10.528-24.934-10.528-24.934-24.936-10.528zM319.168 392.59q-14.406 0-24.936 10.528t-10.528 24.934 10.528 24.936 24.936 10.528 24.936-10.528 10.528-24.936-10.528-24.934-24.936-10.528zM319.168 534.442q-14.406 0-24.936 10.528t-10.528 24.934 10.528 24.936 24.936 10.528 24.936-10.528 10.528-24.936-10.528-24.934-24.936-10.528zM319.168 676.294q-14.406 0-24.936 10.528t-10.528 24.936 10.528 24.934 24.936 10.528 24.936-10.528 10.528-24.934-10.528-24.936-24.936-10.528zM709.264 37.956q0-29.922-20.502-50.424t-50.424-20.502h-141.854q-29.922 0-50.424 20.502t-20.502 50.424v70.926q0 29.922 20.502 50.424t50.424 20.502h141.854q29.922 0 50.424-20.502t20.502-50.424v-70.926zM709.264 321.662q0-29.922-20.502-50.424t-50.424-20.502h-141.854q-29.922 0-50.424 20.502t-20.502 50.424v70.926q0 29.922 20.502 50.424t50.424 20.502h141.854q29.922 0 50.424-20.502t20.502-50.424v-70.926zM709.264 605.368q0-29.922-20.502-50.424t-50.424-20.502h-141.854q-29.922 0-50.424 20.502t-20.502 50.424v70.926q0 29.922 20.502 50.424t50.424 20.502h141.854q29.922 0 50.424-20.502t20.502-50.424v-70.926zM815.654-32.97q-14.408 0-24.934 10.528t-10.528 24.934 10.528 24.934 24.934 10.528 24.934-10.528 10.528-24.934-10.528-24.934-24.934-10.528zM815.654 108.884q-14.408 0-24.934 10.528t-10.528 24.934 10.528 24.934 24.934 10.528 24.934-10.528 10.528-24.934-10.528-24.934-24.934-10.528zM815.654 250.736q-14.408 0-24.934 10.528t-10.528 24.934 10.528 24.934 24.934 10.528 24.934-10.528 10.528-24.934-10.528-24.934-24.934-10.528zM815.654 392.59q-14.408 0-24.934 10.528t-10.528 24.934 10.528 24.936 24.934 10.528 24.934-10.528 10.528-24.936-10.528-24.934-24.934-10.528zM815.654 534.442q-14.408 0-24.934 10.528t-10.528 24.934 10.528 24.936 24.934 10.528 24.934-10.528 10.528-24.936-10.528-24.934-24.934-10.528zM815.654 676.294q-14.408 0-24.934 10.528t-10.528 24.936 10.528 24.934 24.934 10.528 24.934-10.528 10.528-24.934-10.528-24.936-24.934-10.528z" horiz-adv-x="1136" />
<glyph unicode="&#xe09f;" d="M922.044 676.294h-144.068q-34.356 0-106.39-35.464t-106.39-35.462h-139.636q-29.922 0-50.424-20.502t-20.502-50.424v-283.706q0-29.922 20.502-50.424t50.424-20.502h137.42q34.356 0 108.052 35.462t109.16 35.462h141.854q29.922 0 50.424 20.502t20.502 50.424v283.706q0 29.922-20.502 50.424t-50.424 20.502zM248.242 784.9q-29.922 0-51.532-21.61t-21.61-51.532q0-43.222 37.68-64.278v-644.986q0-14.408 10.528-24.934t24.936-10.528 24.934 10.528 10.528 24.934v644.986q37.68 21.056 37.68 64.276 0 29.922-21.61 51.532t-51.532 21.61z" horiz-adv-x="1136" />
<glyph unicode="&#xe0a0;" d="M957.506 108.884h-106.39v-106.39q0-14.408-10.528-24.934t-24.934-10.528-24.934 10.528-10.528 24.934v106.39h-106.39q-14.408 0-24.934 10.528t-10.528 24.934 10.528 24.934 24.934 10.528h106.39v106.39q0 14.408 10.528 24.934t24.934 10.528 24.934-10.528 10.528-24.934v-106.39h106.39q14.408 0 24.934-10.528t10.528-24.934-10.528-24.934-24.934-10.528zM709.264 286.198v-35.462h-35.462q-44.328 0-75.36-31.030t-31.030-75.36q0-17.732 6.65-35.462h-361.282q-29.922 0-50.424 20.502t-20.502 50.424v354.632q0 29.922 20.502 50.424t50.424 20.502h567.412q29.922 0 50.424-20.502t20.502-50.424v-148.502q-17.732 6.65-35.462 6.65-44.328 0-75.36-31.030t-31.030-75.36zM141.854 657.454v18.84q0 29.922 20.502 50.424t50.424 20.502h212.778q29.922 0 50.424-20.502t20.502-50.424h-283.706q-37.68 0-70.926-18.84z" horiz-adv-x="1136" />
<glyph unicode="&#xe0a1;" d="M851.116 104.45h-567.41q-29.922 0-50.424 20.502t-20.502 49.316v354.632q0 29.922 20.502 50.978t50.424 21.056h567.41q29.922 0 50.424-21.056t20.502-50.978v-354.632q0-28.814-20.502-49.316t-50.424-20.502zM212.778 651.914v18.84q0 29.922 20.502 50.424t50.424 20.502h212.778q29.922 0 50.424-20.502t20.502-50.424h-283.706q-37.68 0-70.926-18.84z" horiz-adv-x="1136" />
<glyph unicode="&#xe0a2;" d="M997.404 392.59l-207.238-217.212q-21.056-31.030-50.424-50.978t-57.074-19.948h-473.212q-37.68 0-67.602 21.056t-3.324 49.87l240.484 217.212q37.68 34.356 65.938 52.64t54.856 18.286h459.914q31.030 0 43.774-21.056t-6.096-49.87zM744.726 534.442h-390.096v70.926q0 28.814-20.502 49.87t-50.424 21.056h-70.926q-29.922 0-50.424-21.056t-20.502-49.87v-283.706q0-25.49 16.622-45.438l-70.926-70.926q-16.624 19.948-16.624 45.438v354.632q2.216 65.384 39.896 103.62t101.958 38.234h70.926q64.276-2.216 103.064-39.896t38.788-101.958h319.168q14.408 0 24.934-10.528t10.528-24.934-10.528-24.934-24.934-10.528z" horiz-adv-x="1136" />
<glyph unicode="&#xe0a3;" d="M851.116 459.082v-177.316q0-15.514-10.528-25.49t-24.934-9.974-24.934 9.974-10.528 25.49v177.316h-164.018l197.264 234.944 201.698-234.944h-164.018zM567.41 401.456h141.852v-84.226q0-59.844 41.558-100.848t100.294-41.004q0-29.922-20.502-50.424t-50.424-20.502h-567.41q-29.922 0-50.424 20.502t-20.502 50.424v354.632q0 28.814 20.502 49.87t50.424 21.056h435.532l-79.792-101.956zM141.854 651.914v19.948q0 28.814 20.502 49.87t50.424 21.056h212.778q29.922 0 50.424-21.056t20.502-49.87h-283.706q-37.68 0-70.926-19.948z" horiz-adv-x="1136" />
<glyph unicode="&#xe0a4;" d="M1074.978 381.506q28.814-4.432 45.99-28.814t11.636-53.196l-12.19-69.818q-4.432-28.814-28.814-45.438t-53.194-12.19l-85.332 15.514q-18.84-41.004-46.544-75.36l54.302-78.684q17.732-24.38 12.19-53.196t-28.814-45.438l-58.736-41.004q-24.38-16.624-53.196-11.636t-45.438 29.368l-54.302 77.576q-44.328-15.514-89.766-19.948l-15.514-84.226q-4.432-28.814-28.814-45.99t-53.196-11.636l-69.818 12.19q-28.814 4.432-45.438 28.814t-12.19 53.194l15.514 84.226q-42.112 19.948-78.684 49.87l-77.576-54.302q-23.272-16.624-52.64-11.636t-45.992 29.368l-39.896 57.628q-17.732 24.38-12.19 53.196t28.814 45.438l78.684 55.41q-15.514 42.114-19.948 86.442l-83.116 15.514q-28.814 4.432-45.99 28.814t-11.636 53.196l12.19 69.818q4.434 28.814 28.814 45.438t53.194 12.19l84.224-15.516q19.948 42.114 49.87 78.684l-56.52 79.792q-16.622 24.38-11.636 53.194t29.368 45.438l57.628 41.004q24.38 16.624 53.194 11.636t46.546-29.368l56.52-80.9q42.114 14.408 86.442 18.84l15.514 84.224q4.432 28.814 28.814 45.99t53.196 11.636l69.818-12.19q28.814-4.432 45.438-28.814t12.19-53.196l-15.514-84.226q39.896-19.948 75.36-47.654l80.9 56.52q24.38 16.624 53.196 11.636t45.436-29.368l41.004-57.628q16.624-24.382 11.636-53.196t-29.368-45.438l-79.792-56.52q14.408-44.328 19.948-89.766zM640 568.798q-86.996 15.514-159.030-34.908t-87.55-137.42 35.464-159.030 137.42-87.55 159.030 34.908 87.55 137.42-35.462 159.030-137.42 87.55z" horiz-adv-x="1136" />
<glyph unicode="&#xe0a5;" d="M932.018 344.38q-131.88-48.208-72.588-175.654t-68.156-68.156-175.654-72.588-96.416 0-175.654 72.588-68.156 68.156-72.588 175.654 0 96.416 72.588 175.654 68.156 68.156 175.654 72.59 96.416 0 175.654-72.59 68.156-68.156 72.588-175.654 0-96.416zM567.41 534.442q-58.736 0-100.294-41.558t-41.558-100.294 41.558-100.294 100.294-41.558 100.294 41.558 41.558 100.294-41.558 100.294-100.294 41.558z" horiz-adv-x="1136" />
<glyph unicode="&#xe0a6;" d="M1084.952 478.476q-76.468-28.26-42.114-101.956t-39.342-39.342-101.956-42.112-55.966 0-101.956 42.114-39.896 39.342-42.114 101.956 0 55.966 42.114 101.404 39.896 39.896 101.956 42.666 55.966 0 101.956-42.666 39.342-39.896 42.114-101.404 0-55.966zM873.28 588.746q-34.356 0-58.182-24.38t-23.826-58.182 23.826-58.182 58.182-24.38 58.182 24.38 23.826 58.182-23.826 58.182-58.182 24.38zM706.494 723.394q-64.832-23.826-35.462-86.442t-33.246-33.248-86.442-35.462-47.654 0-86.442 35.462-33.8 33.248-35.464 86.442 0 47.654 35.464 86.442 33.8 33.8 86.442 35.464 47.654 0 86.442-35.464 33.246-33.8 35.462-86.442 0-47.654zM527.514 817.038q-28.814 0-49.316-20.502t-20.502-49.316 20.502-49.316 49.316-20.502 49.316 20.502 20.502 49.316-20.502 49.316-49.316 20.502zM384 480.14q39.342 108.606 79.238 0t144.622-60.398 56.52-56.52 60.398-144.624q54.302-19.948 54.302-39.896t-54.302-38.788q-108.606-39.896-59.844-145.178t-56.52-56.52-145.178-59.844-79.238 0-144.622 59.844-56.52 56.52-59.844 145.178q-54.302 18.84-54.302 38.788t54.302 39.896q108.606 39.896 59.844 144.622t56.52 56.52 144.622 60.398zM306.978 179.254q0-48.208 34.356-82.562t82.562-34.356 82.562 34.356 34.354 82.562-34.356 82.562-82.562 34.356-82.562-34.356-34.356-82.562z" horiz-adv-x="1136" />
<glyph unicode="&#xe0a7;" d="M992.97 179.81h-141.854v-212.778q0-29.922-20.502-50.424t-50.424-20.502h-567.41q-29.922 0-50.424 20.502t-20.502 50.424v780.19q0 29.922 20.502 50.424t50.424 20.502h567.41q29.922 0 50.424-20.502t20.502-50.424v-70.926h141.854q29.922 0 50.424-20.502t20.502-50.424v-354.632q0-29.922-20.502-50.424t-50.424-20.502zM780.19 250.736v425.558q0 29.922-20.502 50.424t-50.424 20.502h-425.558q-29.922 0-50.424-20.502t-20.502-50.424v-567.41q0-29.922 20.502-50.424t50.424-20.502v531.948q0 14.408 10.528 24.936t24.936 10.528 24.936-10.528 10.528-24.936v-531.948h70.926v496.486q0 29.922 20.502 50.424t50.424 20.502 50.424-20.502 20.502-50.424v-496.486h70.926v531.948q0 14.408 10.528 24.936t24.934 10.528 24.934-10.528 10.528-24.936v-531.948q29.922 0 50.424 20.502t20.502 50.424v141.854zM992.97 569.904q0 14.406-10.528 24.934t-24.934 10.528h-106.39v-354.632h106.39q14.408 0 24.934 10.528t10.528 24.934v283.706z" horiz-adv-x="1136" />
<glyph unicode="&#xe0a8;" d="M922.044 804.848v13.3h-709.264v-13.3l283.706-283.706v-483.186h-141.854q-29.922 0-50.424-20.502t-20.502-50.424h567.41q0 29.922-20.502 50.424t-50.424 20.502h-141.854v483.186z" horiz-adv-x="1136" />
<glyph unicode="&#xe0a9;" d="M851.116 179.81h-70.926q0-88.658-62.062-150.72t-150.72-62.062h-141.854q-88.658 0-150.718 62.062t-62.062 150.72v354.632h567.41v-70.926h70.926q29.922 0 50.424-20.502t20.502-50.424v-141.852q0-29.922-20.502-50.424t-50.424-20.502zM851.116 357.126q0 14.408-10.528 24.934t-24.934 10.528h-35.462v-141.854h35.462q14.408 0 24.934 10.528t10.528 24.934v70.926zM673.802 747.222q-14.408 0-24.934 10.528t-10.528 24.934 10.528 24.936 24.934 10.528 24.934-10.528 10.528-24.936-10.528-24.934-24.934-10.528zM531.948 605.368q-14.408 0-24.936 10.528t-10.528 24.936v141.852q0 14.408 10.528 24.936t24.936 10.528 24.934-10.528 10.528-24.936v-141.852q0-14.408-10.528-24.936t-24.934-10.528zM390.096 605.368q-14.406 0-24.936 10.528t-10.528 24.936 10.528 24.936 24.936 10.528 24.936-10.528 10.528-24.936-10.528-24.936-24.936-10.528z" horiz-adv-x="1136" />
<glyph unicode="&#xe0aa;" d="M638.338 250.736q88.658 0 150.72 62.062t62.062 150.718v354.632h-567.41v-354.632q0-88.658 62.060-150.718t150.718-62.062v-212.778h-141.854q-29.922 0-50.424-20.502t-20.502-50.424h567.41q0 29.922-20.502 50.424t-50.424 20.502h-141.852v212.778z" horiz-adv-x="1136" />
<glyph unicode="&#xe0ab;" d="M780.19 179.81h212.778v-212.778h-212.778v212.778zM780.19 463.514h212.778v-212.778h-212.778v212.778zM496.486 747.222h212.778v-212.778h-212.778v212.778zM780.19 747.222h212.778v-212.778h-212.778v212.778zM212.778 747.222h212.778v-212.778h-212.778v212.778zM496.486 463.514h212.778v-212.778h-212.778v212.778zM212.778 179.81h212.778v-212.778h-212.778v212.778zM212.778 463.514h212.778v-212.778h-212.778v212.778zM496.486 179.81h212.778v-212.778h-212.778v212.778z" horiz-adv-x="1136" />
<glyph unicode="&#xe0ac;" d="M638.338 321.662h354.632v-354.632h-354.632v354.632zM638.338 747.222h354.632v-354.632h-354.632v354.632zM212.778 747.222h354.632v-354.632h-354.632v354.632zM212.778 321.662h354.632v-354.632h-354.632v354.632z" horiz-adv-x="1136" />
<glyph unicode="&#xe0ad;" d="M1029.54 463.514h-919.826q-44.33 0-75.358-31.584t-31.030-75.36 31.030-74.804 75.358-31.030h919.826q43.222 0 74.25 31.030t31.030 74.806-31.030 75.36-74.25 31.584z" horiz-adv-x="1136" />
<glyph unicode="&#xe0ae;" d="M602.874 960q44.328 0 75.36-31.030t31.030-75.36v-922.044q0-44.328-31.030-75.358t-75.36-31.030-75.36 31.030-31.030 75.358v922.044q0 44.328 31.030 75.36t75.36 31.030z" horiz-adv-x="1136" />
<glyph unicode="&#xe0af;" d="M1081.628 373.75l-159.584 159.584v249.35q0 14.408-20.502 24.936t-49.87 10.528-50.424-10.528-21.056-24.936v-107.498l-161.802 161.802q-19.948 19.948-51.532 19.948t-52.64-19.948l-463.238-463.238q-22.164-22.164-14.96-39.342t38.234-17.178h69.818q27.706 0 47.654-19.394t19.948-47.1v-280.38q0-31.030 21.61-52.642t51.532-21.61h211.67v283.706q0 29.922 21.056 50.424t50.424 20.502 49.87-20.502 20.502-50.424v-283.706h209.456q31.030 0 52.64 21.61t21.61 52.64v280.38q0 27.706 19.394 47.1t47.1 19.394h70.926q31.030 0 37.68 16.624t-15.516 39.896z" horiz-adv-x="1136" />
<glyph unicode="&#xe0b0;" d="M1048.382 331.636l-103.066 466.562q-8.866 38.788-41.558 64.832t-71.48 26.044h-529.732q-38.788 0-71.48-26.044t-41.558-64.832l-103.064-466.562q-15.516-67.602-15.516-137.42v-198.372q0-41.004 29.368-70.372t70.372-29.368h793.49q41.004 0 70.372 29.368t29.368 70.372v198.372q0 69.818-15.516 137.42zM982.996 259.048q-8.866-11.636-25.49-11.636h-212.778q-13.298 0-22.72-9.42t-9.42-22.72v-70.926q0-16.624-11.082-27.706t-27.706-11.082h-212.778q-16.622 0-27.706 11.082t-11.082 27.706v70.926q0 13.298-9.42 22.72t-22.718 9.42h-212.778q-16.622 0-25.49 11.636t-5.54 27.152l106.39 477.644q3.324 15.514 16.622 26.596t29.922 11.082h536.38q16.624 0 29.922-11.082t16.624-26.596l106.39-477.644q3.326-15.514-5.542-27.152z" horiz-adv-x="1136" />
<glyph unicode="&#xe0b1;" d="M780.19 320.554q-37.68 0-74.25 9.974l-329.142-329.144q-38.788-38.788-94.752-41.004t-98.078 34.356v211.67q54.302 31.030 106.39 84.226 15.514 14.408 63.168 98.078t65.384 102.51q6.65 5.54 28.814-24.936t28.814-23.828q22.166 22.166 43.222 47.654-24.38 54.302-24.38 115.254 0 117.472 83.116 200.59t201.144 83.116 201.144-83.116 83.116-201.144-83.116-201.144-200.588-83.116zM540.814 487.896l-354.632-354.632 50.978-50.978 354.632 354.632zM815.654 747.222q-44.328 0-75.36-31.030t-31.030-75.36 31.030-75.36 75.36-31.030 75.36 31.030 31.030 75.358-31.030 75.36-75.36 31.030z" horiz-adv-x="1136" />
<glyph unicode="&#xe0b2;" d="M992.97 889.074h-567.41q-29.922 0-50.424-20.502t-20.502-50.424v-177.316q0-14.408 10.528-24.936t24.936-10.528 24.936 10.528 10.528 24.936v106.39q0 29.922 20.502 50.424t50.424 20.502h425.558q29.922 0 50.424-20.502t20.502-50.424v-709.264q0-29.922-20.502-50.424t-50.424-20.502h-425.558q-29.922 0-50.424 20.502t-20.502 50.424v106.39q0 14.408-10.528 24.934t-24.936 10.528-24.936-10.528-10.528-24.934v-177.316q0-29.922 20.502-50.424t50.424-20.502h567.41q29.922 0 50.424 20.502t20.502 50.424v851.116q0 29.922-20.502 50.424t-50.424 20.502zM496.486 189.784l352.416 203.914-352.416 203.914v-134.096h-354.632q-29.922 0-50.424-20.502t-20.502-50.424 20.502-50.424 50.424-20.502h354.632v-131.88z" horiz-adv-x="1136" />
<glyph unicode="&#xe0b3;" d="M673.802 179.81q-14.408 0-24.934-10.528t-10.528-24.934v-106.39q0-29.922-20.502-50.424t-50.424-20.502h-425.558q-29.922 0-50.424 20.502t-20.502 50.424v709.264q0 28.814 20.502 49.87t50.424 21.056h425.558q29.922 0 50.424-21.056t20.502-49.87v-106.39q0-14.408 10.528-24.936t24.934-10.528 24.934 10.528 10.528 24.936v177.316q0 28.814-20.502 49.87t-50.424 21.056h-567.41q-29.922 0-50.424-21.056t-20.502-49.87v-851.116q0-29.922 20.502-50.424t50.424-20.502h567.41q29.922 0 50.424 20.502t20.502 50.424v177.316q0 14.408-10.528 24.934t-24.934 10.528zM1132.606 393.698l-352.416 203.914v-134.096h-354.632q-29.922 0-50.424-21.056t-20.502-50.424 20.502-49.87 50.424-20.502h354.632v-131.88z" horiz-adv-x="1136" />
<glyph unicode="&#xe0b4;" d="M567.41-103.896q-14.408 17.732-38.234 48.762t-85.332 118.026-108.052 163.462-84.778 165.126-38.234 142.962q0 96.416 47.654 177.87t129.108 129.108 177.87 47.654 177.87-47.654 129.108-129.108 47.654-177.87q0-54.302-36.572-140.19t-88.658-170.114-104.174-159.030-88.658-122.46-36.572-46.546zM567.41 748.328q-88.658 0-151.274-62.616t-62.616-151.272 62.616-151.274 151.274-62.616 151.274 62.616 62.616 151.274-62.616 151.274-151.274 62.616z" horiz-adv-x="1136" />
<glyph unicode="&#xe0b5;" d="M922.044 747.222l-275.948-212.778h-433.316q-29.922 0-50.424-20.502t-20.502-50.424v-141.854q0-29.922 20.502-50.424t50.424-20.502h70.926v-141.854q0-29.922 20.502-50.424t50.424-20.502 50.424 20.502 20.502 50.424v141.854h220.538l275.948-212.778q29.922 0 50.424 20.502t20.502 50.424v567.41q0 28.814-21.056 49.87t-49.87 21.056z" horiz-adv-x="1136" />
<glyph unicode="&#xe0b6;" d="M354.632 747.222v-515.326q-33.248 18.84-70.926 18.84-58.736 0-100.294-41.558t-41.558-100.294 41.558-100.294 100.294-41.558 100.294 41.558 41.558 100.294v505.35l425.558 53.196v-364.606q-33.246 18.84-70.926 18.84-58.736 0-100.294-41.558t-41.558-100.294 41.558-100.294 100.294-41.558 100.294 41.558 41.558 100.294v638.338z" horiz-adv-x="1136" />
<glyph unicode="&#xe0b7;" d="M780.19 179.81h-80.346t-80.346 1.108q-6.65-2.216-36.572 12.19-15.514 4.432-15.514-4.432-1.108-6.65 0-20.502t0-24.38-5.542-19.394q-13.298-22.164-39.896-13.852t-25.488 33.802v177.316h-251.568q-16.622 1.108-26.044 15.514t-4.986 30.476 21.056 21.61q2.216 4.432 35.464 3.88t36.57-0.554h189.506v92.538t1.108 91.428q2.216 17.732 17.176 24.936t31.030 1.108 20.502-21.61q1.108-4.432 1.108-33.246v-32.14q15.514 8.866 34.908 13.298t33.246 4.988 38.234 0.554h106.944t33.246-4.432 33.802-12.19q37.68-19.948 57.628-58.736t16.624-82.008v-25.49t-0.554-28.814-2.216-24.934-6.096-26.596-12.19-22.72q-17.732-32.14-50.978-50.424t-69.818-18.286zM780.19 463.514h-76.468t-76.468-1.108q-35.462-3.324-52.64-38.234t1.662-65.938q9.974-19.948 31.584-29.368t45.99-7.202h68.71t68.71 1.108q35.462 3.326 52.64 38.234t-1.662 65.938q-8.866 16.624-26.044 26.596t-36.018 9.974z" horiz-adv-x="1136" />
<glyph unicode="&#xe0b8;" d="M815.654 321.662h-177.316v-248.242q0-14.408-10.528-24.934t-24.934-10.528-24.934 10.528-10.528 24.934v248.242h-177.316q-14.406 0-24.936 10.528t-10.528 24.934 10.528 24.934 24.936 10.528h54.302q-18.84 33.246-18.84 70.926v141.854q0 58.736 41.558 100.294t100.294 41.558h70.926q58.736 0 100.294-41.558t41.558-100.294v-141.854q0-37.68-18.84-70.926h54.302q14.408 0 24.934-10.528t10.528-24.934-10.528-24.934-24.934-10.528zM638.338 605.368q0 29.922-20.502 50.424t-50.424 20.502-50.424-20.502-20.502-50.424v-141.852q0-28.814 20.502-49.87t50.424-21.056 50.424 21.056 20.502 49.87v141.852z" horiz-adv-x="1136" />
<glyph unicode="&#xe0b9;" d="M780.19 770.494v-126.338q79.792-52.086 126.892-137.42t47.1-185.074q0-105.28-51.532-194.494t-140.746-140.746-194.494-51.532-194.494 51.532-140.746 140.746-51.532 194.494q0 99.74 47.1 185.074t126.892 137.42v126.338q-127.446-60.952-205.576-181.75t-78.13-267.082q0-100.848 39.342-192.832t105.834-158.476 158.476-105.836 192.832-39.342 192.832 39.342 158.476 105.836 105.836 158.476 39.342 192.832q0 146.286-78.13 267.082t-205.576 181.75zM567.41 321.662q29.922 0 50.424 20.502t20.502 50.424v496.486q0 29.922-20.502 50.424t-50.424 20.502-50.424-20.502-20.502-50.424v-496.486q0-29.922 20.502-50.424t50.424-20.502z" horiz-adv-x="1136" />
<glyph unicode="&#xe0ba;" d="M1029.54 250.736h-919.826q-44.33 0-75.358 31.030t-31.030 75.36 31.030 75.36 75.358 31.030h919.826q43.222 0 74.25-31.030t31.030-75.36-31.030-75.36-74.25-31.030zM1026.216 392.59h-318.060v-70.926h318.060q14.406 0 24.934 10.528t10.528 24.934-10.528 24.934-24.934 10.528zM1029.54 604.26h-919.826q-44.33 0-75.358 31.030t-31.030 75.358 31.030 75.36 75.358 31.030h919.826q43.222 0 74.25-31.030t31.030-75.36-31.030-75.358-74.25-31.030zM1026.216 746.114h-530.84v-70.926h530.84q14.406 0 24.934 10.528t10.528 24.936-10.528 24.934-24.934 10.528zM109.714 109.99h919.826q43.222 0 74.25-31.584t31.030-75.36-31.030-74.806-74.25-31.030h-919.826q-44.33 0-75.358 31.030t-31.030 74.806 31.030 75.36 75.358 31.584zM354.632-31.86h671.584q14.406 0 24.934 10.528t10.528 24.934-10.528 24.934-24.934 10.528h-671.584v-70.926z" horiz-adv-x="1136" />
<glyph unicode="&#xe0bb;" d="M638.338-32.97v212.778q0 29.922-20.502 50.424t-50.424 20.502-50.424-20.502-20.502-50.424v-212.778h-354.632l212.778 851.116h141.854v-70.926q0-29.922 20.502-50.424t50.424-20.502 50.424 20.502 20.502 50.424v70.926h141.854l212.778-851.116h-354.632zM638.338 534.442q0 29.922-20.502 50.424t-50.424 20.502-50.424-20.502-20.502-50.424v-141.854q0-29.922 20.502-50.424t50.424-20.502 50.424 20.502 20.502 50.424v141.854z" horiz-adv-x="1136" />
<glyph unicode="&#xe0bc;" d="M230.51 190.892v-135.202h135.204q0 56.52-39.342 95.86t-95.86 39.342zM230.51 462.406v-136.312q111.932 0 191.17-79.238t79.238-191.168h136.312q0 110.822-54.856 203.914t-147.948 147.948-203.914 54.856zM230.51 732.814v-135.202q109.714 0 210.008-43.222t172.884-115.81 115.81-172.884 43.222-210.010h135.202q0 137.42-53.75 263.202t-144.068 216.104-216.104 144.068-263.202 53.75z" horiz-adv-x="1136" />
</font>
</defs>
</svg>
